Sign Up   |   Sign In  
Beacon 23Parish48 HoursNorth Korea: Inside the Mind of a DictatorScrambledWillowSaturday Night LiveImmoral WomenRiddle of FireA Gentleman in MoscowBlueyPacific Rim: UprisingBlue BloodsS.W.A.T.Grey's AnatomyThe War on ChildrenSleeping DogsTom and HuckFalloutFire CountryStar Trek: DiscoveryT2 TrainspottingWhiplashDamagedSugar

Announcements

03/29

2024

1

Comments

A Gentleman in Moscow S01E01 A Master of Circumstance 720p AMZN WEB-DL DDP5 1 H 264-FLUX
[RR/NF/CU]
Size: 1.4GB mkv H264 (HIGH) / EAC3  HD  1280x720

A Gentleman in Moscow
File Information
[img]http://lookpic.com/cdn/i2/t/0329202414234475-1.jpg[/img]
[img]http://lookpic.com/cdn/i2/t/0329202414234475-2.jpg[/img]
[img]http://lookpic.com/cdn/i2/t/0329202414234475-3.jpg[/img]

General
Unique ID                                : 189769725701490543027643541756378325605 (0x8EC451D99B52FCA2D2F94355E9FBA265)
Complete name                            : A Gentleman in Moscow S01E01 A Master of Circumstance 720p AMZN WEB-DL DDP5 1 H 264-FLUX.mkv
Format                                   : Matroska
Format version                           : Version 4
File size                                : 1.38 GiB
Duration                                 : 48 min 28 s
Overall bit rate                         : 4 088 kb/s
Frame rate                               : 23.976 FPS
Writing application                      : mkvmerge v81.0 ('Milliontown') 64-bit
Writing library                          : libebml v1.4.4 + libmatroska v1.7.1

Video
ID                                       : 1
Format                                   : AVC
Format/Info                              : Advanced Video Codec
Format profile                           : [email protected]
Format settings                          : CABAC / 4 Ref Frames
Format settings, CABAC                   : Yes
Format settings, Reference frames        : 4 frames
Codec ID                                 : V_MPEG4/ISO/AVC
Duration                                 : 48 min 28 s
Bit rate mode                            : Constant
Bit rate                                 : 3 446 kb/s
Nominal bit rate                         : 4 000 kb/s
Width                                    : 1 280 pixels
Height                                   : 720 pixels
Display aspect ratio                     : 16:9
Frame rate mode                          : Constant
Frame rate                               : 23.976 (24000/1001) FPS
Color space                              : YUV
Chroma subsampling                       : 4:2:0
Bit depth                                : 8 bits
Scan type                                : Progressive
Bits/(Pixel*Frame)                       : 0.156
Stream size                              : 1.17 GiB (84%)
Language                                 : English (US)
Default                                  : Yes
Forced                                   : No
Color range                              : Limited
Color primaries                          : BT.709
Transfer characteristics                 : BT.709
Matrix coefficients                      : BT.709

Audio
ID                                       : 2
Format                                   : E-AC-3
Format/Info                              : Enhanced AC-3
Commercial name                          : Dolby Digital Plus
Codec ID                                 : A_EAC3
Duration                                 : 48 min 28 s
Bit rate mode                            : Constant
Bit rate                                 : 640 kb/s
Channel(s)                               : 6 channels
Channel layout                           : L R C LFE Ls Rs
Sampling rate                            : 48.0 kHz
Frame rate                               : 31.250 FPS (1536 SPF)
Compression mode                         : Lossy
Stream size                              : 222 MiB (16%)
Language                                 : English (US)
Service kind                             : Complete Main
Default                                  : Yes
Forced                                   : No

Text #1
ID                                       : 3
Format                                   : UTF-8
Codec ID                                 : S_TEXT/UTF8
Codec ID/Info                            : UTF-8 Plain Text
Duration                                 : 47 min 15 s
Bit rate                                 : 44 b/s
Frame rate                               : 0.176 FPS
Count of elements                        : 498
Stream size                              : 15.3 KiB (0%)
Language                                 : English (US)
Default                                  : No
Forced                                   : No

Text #2
ID                                       : 4
Format                                   : UTF-8
Codec ID                                 : S_TEXT/UTF8
Codec ID/Info                            : UTF-8 Plain Text
Duration                                 : 47 min 49 s
Bit rate                                 : 51 b/s
Frame rate                               : 0.218 FPS
Count of elements                        : 625
Stream size                              : 17.9 KiB (0%)
Title                                    : SDH
Language                                 : English (US)
Default                                  : No
Forced                                   : No

Menu
00:00:00.000                             : en:Scene 1
00:47:24.000                             : en:End Credits



Download
File Container: MKV
Video/Audio Codec: H264 (HIGH) EAC3
Video Resolution: 1280x720

1 Response to "[RR/NF/CU] A Gentleman in Moscow S01E01 A Master of Circumstance 720p AMZN WEB-DL DDP5 1 H 264-FLUX (1.4GB)"
03/29/24
17:32:48
ReadyPlayerOne

Thank you!

Please Login to post a comment.
If you don't have any account, please Register.
  • Subscribe my Feeds
  • Facebook
Encoding Queue:  x264  x265

Latest Episodes

Popular Movies and TV Shows

  • Beacon 23
  • Parish
  • 48 Hours
  • North Korea: Inside the Mind of a Dictator
  • Scrambled
  • Willow
  • Saturday Night Live
  • Immoral Women
  • Riddle of Fire
  • A Gentleman in Moscow
  • Bluey
  • Pacific Rim: Uprising
  • Blue Bloods
  • S.W.A.T.
  • Grey's Anatomy
  • The War on Children
  • Sleeping Dogs
  • Tom and Huck
  • Fallout
  • Fire Country
  • Star Trek: Discovery
  • T2 Trainspotting
  • Whiplash
  • Damaged
  • Sugar

Recent Comments

  • DownloadHostInspector:

    so far these RMTeam uploads always have a working link. DownloadHostInspector approved!

  • DownloadHostInspector:

    ah yes, this upload has a host that works. clicknupload. DownloadHostInspector approved!

  • DownloadHostInspector: Why are all the download hosts trash? none of them let you download it
  • Qua4ratic:

    clicknupload link plz

  • ppoo:

    Please, can you add "Real Time with Bill Maher S22E11" ??

  • theahtisham:

    Kindly upload Ep. 3 and 4 as well.

  • Kudzu: Update on sound issue, File's codec info says stereo but is only a the left channel If I switch i...
  • Admin:

    kang
    Getting error while encoding, sorry

  • rambaldi70:

    sorry this release ok.
    but descripton is bad
    (Duration: 2h56m7s)

Archives