Sign Up   |   Sign In  
Murdoch MysteriesPoor ThingsBob Hearts AbisholaSin City MurdersIngaSpacemanThe RegimeThe WayS.W.A.T.Tommy BoyThe Legend of ZorroBurn After ReadingTrackerThe EqualizerCSI: VegasSpitfireWarm BodiesSomeone Lives HereCurb Your EnthusiasmThe Walking Dead: The Ones Who LiveDeath in ParadiseThe Phantom WarriorDune: Part TwoFootlooseRed Queen

Announcements

02/09

2024

1

Comments

Bad Education S05E05 Reading 720p iP WEB-DL AAC2 0 H 264-NTb
[RR/NF/CU]
Size: 1.1GB mkv H264 (HIGH) / AAC (LC)  HD  1280x720

Bad Education
File Information
[img]http://lookpic.com/cdn/i2/t/0209202408272601-1.jpg[/img]
[img]http://lookpic.com/cdn/i2/t/0209202408272601-2.jpg[/img]
[img]http://lookpic.com/cdn/i2/t/0209202408272601-3.jpg[/img]

General
Unique ID                                : 221104021420761618303664142765165974313 (0xA65715E7C69B5909C94BA40984791329)
Complete name                            : Bad.Education.S05E05.Reading.720p.iP.WEB-DL.AAC2.0.H.264-NTb.mkv
Format                                   : Matroska
Format version                           : Version 4
File size                                : 1.06 GiB
Duration                                 : 29 min 17 s
Overall bit rate mode                    : Variable
Overall bit rate                         : 5 177 kb/s
Frame rate                               : 50.000 FPS
Encoded date                             : 2024-01-22 19:15:28 UTC
Writing application                      : mkvmerge v82.0 ('I'm The President') 64-bit
Writing library                          : libebml v1.4.5 + libmatroska v1.7.1

Video
ID                                       : 1
Format                                   : AVC
Format/Info                              : Advanced Video Codec
Format profile                           : [email protected]
Format settings                          : CABAC / 4 Ref Frames
Format settings, CABAC                   : Yes
Format settings, Reference frames        : 4 frames
Codec ID                                 : V_MPEG4/ISO/AVC
Duration                                 : 29 min 17 s
Bit rate mode                            : Variable
Bit rate                                 : 5 045 kb/s
Maximum bit rate                         : 7 605 kb/s
Width                                    : 1 280 pixels
Height                                   : 720 pixels
Display aspect ratio                     : 16:9
Frame rate mode                          : Constant
Frame rate                               : 50.000 FPS
Color space                              : YUV
Chroma subsampling                       : 4:2:0
Bit depth                                : 8 bits
Scan type                                : Progressive
Bits/(Pixel*Frame)                       : 0.109
Stream size                              : 1.03 GiB (97%)
Default                                  : Yes
Forced                                   : No
Color range                              : Limited
Color primaries                          : BT.709
Transfer characteristics                 : BT.709
Matrix coefficients                      : BT.709

Audio
ID                                       : 2
Format                                   : AAC LC
Format/Info                              : Advanced Audio Codec Low Complexity
Codec ID                                 : A_AAC-2
Duration                                 : 29 min 17 s
Bit rate                                 : 128 kb/s
Channel(s)                               : 2 channels
Channel layout                           : L R
Sampling rate                            : 48.0 kHz
Frame rate                               : 46.875 FPS (1024 SPF)
Compression mode                         : Lossy
Stream size                              : 26.8 MiB (2%)
Language                                 : English
Default                                  : Yes
Forced                                   : No

Text
ID                                       : 3
Format                                   : UTF-8
Codec ID                                 : S_TEXT/UTF8
Codec ID/Info                            : UTF-8 Plain Text
Duration                                 : 29 min 1 s
Bit rate                                 : 230 b/s
Frame rate                               : 0.358 FPS
Count of elements                        : 624
Stream size                              : 49.0 KiB (0%)
Language                                 : English
Default                                  : No
Forced                                   : No



Download
File Container: MKV
Video/Audio Codec: H264 (HIGH) AAC (LC)
Video Resolution: 1280x720

1 Response to "[RR/NF/CU] Bad Education S05E05 Reading 720p iP WEB-DL AAC2 0 H 264-NTb (1.1GB)"
02/09/24
20:03:35
ReadyPlayerOne

Thank You

Please Login to post a comment.
If you don't have any account, please Register.
  • Subscribe my Feeds
  • Facebook
Encoding Queue:  x264  x265

Latest Episodes

Popular Movies and TV Shows

  • Murdoch Mysteries
  • Poor Things
  • Bob Hearts Abishola
  • Sin City Murders
  • Inga
  • Spaceman
  • The Regime
  • The Way
  • S.W.A.T.
  • Tommy Boy
  • The Legend of Zorro
  • Burn After Reading
  • Tracker
  • The Equalizer
  • CSI: Vegas
  • Spitfire
  • Warm Bodies
  • Someone Lives Here
  • Curb Your Enthusiasm
  • The Walking Dead: The Ones Who Live
  • Death in Paradise
  • The Phantom Warrior
  • Dune: Part Two
  • Footloose
  • Red Queen

Recent Comments

  • tinyhands: Warning: Hardcoded Polish(?) subs. Maybe Hungarian? Japanese audio only, no other tracks/subs.
  • Modena:

    Please upload to clicknupload

  • aaroz88:

    Trimas!!

  • PROFessorMorrynarty:

    Any chance of a version with English subtitles please?

  • RMadcow:

    This release has German Audio and Subtitles

  • Bud:

    Any chance of a re-up on the clicknupload link?

  • ruf999:

    hanyou

  • uncabrian: If you can, please upload other seasons of "Eureka" in the same format and size. Much appr...
  • pr4455:

    hi this movie has no audio just commentry

  • asalan:

    please reupload.

  • asalan:

    reupload please.

  • newuser:

    need English Sub that Sync

Archives