Sign Up   |   Sign In  
IngaThe WayPoor ThingsThe RegimeThe Legend of ZorroS.W.A.T.TrackerThe EqualizerTommy BoyRed QueenEnter Arsene LupinNo FutureCSI: VegasBlackshoreCurb Your EnthusiasmSpitfireSomeone Lives HereWarm BodiesThe Walking Dead: The Ones Who LiveDeath in ParadiseKrapopolisThe Phantom WarriorTenacious D in the Pick of DestinyFootlooseBelgravia: The Next Chapter

Announcements

02/09

2024

1

Comments

Bad Education S05E06 Camping 720p iP WEB-DL AAC2 0 H 264-NTb
[RR/NF/CU]
Size: 1.1GB mkv H264 (HIGH) / AAC (LC)  HD  1280x720

Bad Education
File Information
[img]http://lookpic.com/cdn/i2/t/0209202408280823-1.jpg[/img]
[img]http://lookpic.com/cdn/i2/t/0209202408280823-2.jpg[/img]
[img]http://lookpic.com/cdn/i2/t/0209202408280823-3.jpg[/img]

General
Unique ID                                : 164436777005540287635318634014078100617 (0x7BB55F0C29D86E53E3DCDA1BC4E76489)
Complete name                            : Bad.Education.S05E06.Camping.720p.iP.WEB-DL.AAC2.0.H.264-NTb.mkv
Format                                   : Matroska
Format version                           : Version 4
File size                                : 1.06 GiB
Duration                                 : 29 min 14 s
Overall bit rate mode                    : Variable
Overall bit rate                         : 5 179 kb/s
Frame rate                               : 50.000 FPS
Encoded date                             : 2024-01-22 19:15:13 UTC
Writing application                      : mkvmerge v82.0 ('I'm The President') 64-bit
Writing library                          : libebml v1.4.5 + libmatroska v1.7.1

Video
ID                                       : 1
Format                                   : AVC
Format/Info                              : Advanced Video Codec
Format profile                           : [email protected]
Format settings                          : CABAC / 4 Ref Frames
Format settings, CABAC                   : Yes
Format settings, Reference frames        : 4 frames
Codec ID                                 : V_MPEG4/ISO/AVC
Duration                                 : 29 min 14 s
Bit rate mode                            : Variable
Bit rate                                 : 5 047 kb/s
Maximum bit rate                         : 7 605 kb/s
Width                                    : 1 280 pixels
Height                                   : 720 pixels
Display aspect ratio                     : 16:9
Frame rate mode                          : Constant
Frame rate                               : 50.000 FPS
Color space                              : YUV
Chroma subsampling                       : 4:2:0
Bit depth                                : 8 bits
Scan type                                : Progressive
Bits/(Pixel*Frame)                       : 0.110
Stream size                              : 1.03 GiB (97%)
Default                                  : Yes
Forced                                   : No
Color range                              : Limited
Color primaries                          : BT.709
Transfer characteristics                 : BT.709
Matrix coefficients                      : BT.709

Audio
ID                                       : 2
Format                                   : AAC LC
Format/Info                              : Advanced Audio Codec Low Complexity
Codec ID                                 : A_AAC-2
Duration                                 : 29 min 14 s
Bit rate                                 : 128 kb/s
Channel(s)                               : 2 channels
Channel layout                           : L R
Sampling rate                            : 48.0 kHz
Frame rate                               : 46.875 FPS (1024 SPF)
Compression mode                         : Lossy
Stream size                              : 26.8 MiB (2%)
Language                                 : English
Default                                  : Yes
Forced                                   : No

Text
ID                                       : 3
Format                                   : UTF-8
Codec ID                                 : S_TEXT/UTF8
Codec ID/Info                            : UTF-8 Plain Text
Duration                                 : 28 min 42 s
Bit rate                                 : 230 b/s
Frame rate                               : 0.359 FPS
Count of elements                        : 618
Stream size                              : 48.6 KiB (0%)
Language                                 : English
Default                                  : No
Forced                                   : No



Download
File Container: MKV
Video/Audio Codec: H264 (HIGH) AAC (LC)
Video Resolution: 1280x720

1 Response to "[RR/NF/CU] Bad Education S05E06 Camping 720p iP WEB-DL AAC2 0 H 264-NTb (1.1GB)"
02/09/24
20:03:23
ReadyPlayerOne

Thank You

Please Login to post a comment.
If you don't have any account, please Register.
  • Subscribe my Feeds
  • Facebook
Encoding Queue:  x264  x265

Latest Episodes

Popular Movies and TV Shows

  • Inga
  • The Way
  • Poor Things
  • The Regime
  • The Legend of Zorro
  • S.W.A.T.
  • Tracker
  • The Equalizer
  • Tommy Boy
  • Red Queen
  • Enter Arsene Lupin
  • No Future
  • CSI: Vegas
  • Blackshore
  • Curb Your Enthusiasm
  • Spitfire
  • Someone Lives Here
  • Warm Bodies
  • The Walking Dead: The Ones Who Live
  • Death in Paradise
  • Krapopolis
  • The Phantom Warrior
  • Tenacious D in the Pick of Destiny
  • Footloose
  • Belgravia: The Next Chapter

Recent Comments

  • tinyhands: Warning: Hardcoded Polish(?) subs. Maybe Hungarian? Japanese audio only, no other tracks/subs.
  • Modena:

    Please upload to clicknupload

  • aaroz88:

    Trimas!!

  • PROFessorMorrynarty:

    Any chance of a version with English subtitles please?

  • RMadcow:

    This release has German Audio and Subtitles

  • Bud:

    Any chance of a re-up on the clicknupload link?

  • ruf999:

    hanyou

  • uncabrian: If you can, please upload other seasons of "Eureka" in the same format and size. Much appr...
  • pr4455:

    hi this movie has no audio just commentry

  • asalan:

    please reupload.

  • asalan:

    reupload please.

  • newuser:

    need English Sub that Sync

Archives