Sign Up   |   Sign In  
Family GuyThe 100th: Billy Joel at Madison Square Garden - The Greatest Arena Run of All TimeHundreds of BeaversI Was Reincarnated as the 7th Prince So I Can Take My Time Perfecting My Magical AbilityHomicide: New YorkAbba: How They Won EurovisionThe SympathizerTrackerDune: Part TwoModel HouseThe Great NorthKurt Cobain: Moments That Shook MusicWhen Calls the HeartSullivan's CrossingThe Batman vs. DraculaBeacon 23The ChannelThere's Still TomorrowFalloutShogunS.W.A.T.Trinket BoxTo Die ForThe Taste of ThingsFBI

Announcements

03/30

2024

1

Comments

Beyond Paradise S02E02 720p WEB-DL AAC2 0 H 264-NTb
[RR/NF]
Size: 2.1GB mkv H264 (HIGH) / AAC (LC)  HD  1280x720

Beyond Paradise
File Information
[img]http://lookpic.com/cdn/i2/t/0330202402103227-1.jpg[/img]
[img]http://lookpic.com/cdn/i2/t/0330202402103227-2.jpg[/img]
[img]http://lookpic.com/cdn/i2/t/0330202402103227-3.jpg[/img]

General
Unique ID                                : 269207276690410085558108800500807953120 (0xCA876F7FB699D2C9A75491F49322EAE0)
Complete name                            : Beyond Paradise S02E02 720p WEB-DL AAC2 0 H 264-NTb.mkv
Format                                   : Matroska
Format version                           : Version 4
File size                                : 2.10 GiB
Duration                                 : 57 min 54 s
Overall bit rate mode                    : Variable
Overall bit rate                         : 5 181 kb/s
Frame rate                               : 50.000 FPS
Movie name                               : Episode 2
Encoded date                             : 2024-03-30 00:41:56 UTC
Writing application                      : mkvmerge v83.0 ('Circle Of Friends') 64-bit
Writing library                          : libebml v1.4.5 + libmatroska v1.7.1
Cover                                    : Yes
Attachments                              : cover.jpg

Video
ID                                       : 1
Format                                   : AVC
Format/Info                              : Advanced Video Codec
Format profile                           : [email protected]
Format settings                          : CABAC / 4 Ref Frames
Format settings, CABAC                   : Yes
Format settings, Reference frames        : 4 frames
Codec ID                                 : V_MPEG4/ISO/AVC
Duration                                 : 57 min 54 s
Bit rate mode                            : Variable
Bit rate                                 : 5 049 kb/s
Maximum bit rate                         : 7 605 kb/s
Width                                    : 1 280 pixels
Height                                   : 720 pixels
Display aspect ratio                     : 16:9
Frame rate mode                          : Constant
Frame rate                               : 50.000 FPS
Color space                              : YUV
Chroma subsampling                       : 4:2:0
Bit depth                                : 8 bits
Scan type                                : Progressive
Bits/(Pixel*Frame)                       : 0.110
Stream size                              : 2.04 GiB (97%)
Default                                  : Yes
Forced                                   : No
Color range                              : Limited
Color primaries                          : BT.709
Transfer characteristics                 : BT.709
Matrix coefficients                      : BT.709

Audio
ID                                       : 2
Format                                   : AAC LC
Format/Info                              : Advanced Audio Codec Low Complexity
Codec ID                                 : A_AAC-2
Duration                                 : 57 min 54 s
Bit rate                                 : 128 kb/s
Channel(s)                               : 2 channels
Channel layout                           : L R
Sampling rate                            : 48.0 kHz
Frame rate                               : 46.875 FPS (1024 SPF)
Compression mode                         : Lossy
Stream size                              : 53.0 MiB (2%)
Language                                 : English
Default                                  : Yes
Forced                                   : No

Text
ID                                       : 3
Format                                   : UTF-8
Codec ID                                 : S_TEXT/UTF8
Codec ID/Info                            : UTF-8 Plain Text
Duration                                 : 57 min 21 s
Bit rate                                 : 90 b/s
Frame rate                               : 0.271 FPS
Count of elements                        : 933
Stream size                              : 37.8 KiB (0%)
Language                                 : English
Default                                  : Yes
Forced                                   : No



Download
File Container: MKV
Video/Audio Codec: H264 (HIGH) AAC (LC)
Video Resolution: 1280x720

1 Response to "[RR/NF] Beyond Paradise S02E02 720p WEB-DL AAC2 0 H 264-NTb (2.1GB)"
03/30/24
04:42:35
ReadyPlayerOne

Thank you!

Please Login to post a comment.
If you don't have any account, please Register.
  • Subscribe my Feeds
  • Facebook
Encoding Queue:  x264  x265

Latest Episodes

Popular Movies and TV Shows

  • Family Guy
  • The 100th: Billy Joel at Madison Square Garden - The Greatest Arena Run of All Time
  • Hundreds of Beavers
  • I Was Reincarnated as the 7th Prince So I Can Take My Time Perfecting My Magical Ability
  • Homicide: New York
  • Abba: How They Won Eurovision
  • The Sympathizer
  • Tracker
  • Dune: Part Two
  • Model House
  • The Great North
  • Kurt Cobain: Moments That Shook Music
  • When Calls the Heart
  • Sullivan's Crossing
  • The Batman vs. Dracula
  • Beacon 23
  • The Channel
  • There's Still Tomorrow
  • Fallout
  • Shogun
  • S.W.A.T.
  • Trinket Box
  • To Die For
  • The Taste of Things
  • FBI

Recent Comments

  • Bud:

    Are you ever going to put up Thursday's episode with Liev Schreiber?

  • alp-engin:

    When will that maintenance be over? Please...

  • mentalityx:

    Rad bloke

  • DownloadHostInspector:

    so far these RMTeam uploads always have a working link. DownloadHostInspector approved!

  • DownloadHostInspector:

    ah yes, this upload has a host that works. clicknupload. DownloadHostInspector approved!

  • DownloadHostInspector: Why are all the download hosts trash? none of them let you download it
  • Qua4ratic:

    clicknupload link plz

  • ppoo:

    Please, can you add "Real Time with Bill Maher S22E11" ??

  • theahtisham:

    Kindly upload Ep. 3 and 4 as well.

Archives