Sign Up   |   Sign In  
TrackerThe Walking Dead: The Ones Who LiveCurb Your EnthusiasmThe Necro FilesI soliti idioti: Il filmEksThe EqualizerCSI: VegasDeath in ParadiseThe Fourth AngelCold CopyThe PawnshopNinja KamuiCall the MidwifeWill TrentPlanetquakeMinority ReportThe CureSaturday Night LiveBelgravia: The Next ChapterHouse of GodsThe PredatorRorschachThe BirdsS.W.A.T.

Announcements

02/07

2024

1

Comments

Criminal Record S01E06 Beehive 720p ATVP WEB-DL DDP5 1 Atmos H 264-CMRG
[RR/NF/CU]
Size: 1.7GB mkv H264 (HIGH) / EAC3  HD  1356x678

Criminal Record
File Information
[img]http://lookpic.com/cdn/i2/t/0207202404380714-1.jpg[/img]
[img]http://lookpic.com/cdn/i2/t/0207202404380714-2.jpg[/img]
[img]http://lookpic.com/cdn/i2/t/0207202404380714-3.jpg[/img]

General
Unique ID                                : 34019510909947538276173768247365976811 (0x1997EB62BEDCD007BB33CAAB108DC2EB)
Complete name                            : Criminal.Record.S01E06.Beehive.720p.ATVP.WEB-DL.DDP5.1.Atmos.H.264-CMRG.mkv
Format                                   : Matroska
Format version                           : Version 4
File size                                : 1.70 GiB
Duration                                 : 52 min 9 s
Overall bit rate                         : 4 661 kb/s
Frame rate                               : 23.976 FPS
Writing application                      : mkvmerge v76.0 ('Celebration') 64-bit
Writing library                          : libebml v1.4.4 + libmatroska v1.7.1

Video
ID                                       : 1
Format                                   : AVC
Format/Info                              : Advanced Video Codec
Format profile                           : [email protected]
Format settings                          : CABAC / 5 Ref Frames
Format settings, CABAC                   : Yes
Format settings, Reference frames        : 5 frames
Codec ID                                 : V_MPEG4/ISO/AVC
Duration                                 : 52 min 9 s
Bit rate                                 : 3 886 kb/s
Width                                    : 1 356 pixels
Height                                   : 678 pixels
Display aspect ratio                     : 2.000
Frame rate mode                          : Constant
Frame rate                               : 23.976 FPS
Color space                              : YUV
Chroma subsampling                       : 4:2:0
Bit depth                                : 8 bits
Scan type                                : Progressive
Bits/(Pixel*Frame)                       : 0.176
Stream size                              : 1.42 GiB (83%)
Language                                 : English
Default                                  : Yes
Forced                                   : No
Color range                              : Limited
Color primaries                          : BT.709
Transfer characteristics                 : BT.709
Matrix coefficients                      : BT.709

Audio
ID                                       : 2
Format                                   : E-AC-3 JOC
Format/Info                              : Enhanced AC-3 with Joint Object Coding
Commercial name                          : Dolby Digital Plus with Dolby Atmos
Codec ID                                 : A_EAC3
Duration                                 : 52 min 9 s
Bit rate mode                            : Constant
Bit rate                                 : 768 kb/s
Channel(s)                               : 6 channels
Channel layout                           : L R C LFE Ls Rs
Sampling rate                            : 48.0 kHz
Frame rate                               : 31.250 FPS (1536 SPF)
Compression mode                         : Lossy
Stream size                              : 287 MiB (16%)
Language                                 : English
Service kind                             : Complete Main
Default                                  : Yes
Forced                                   : No
Complexity index                         : 16
Number of dynamic objects                : 15
Bed channel count                        : 1 channel
Bed channel configuration                : LFE

Text #1
ID                                       : 3
Format                                   : UTF-8
Codec ID                                 : S_TEXT/UTF8
Codec ID/Info                            : UTF-8 Plain Text
Duration                                 : 50 min 48 s
Bit rate                                 : 57 b/s
Frame rate                               : 0.196 FPS
Count of elements                        : 598
Stream size                              : 21.4 KiB (0%)
Language                                 : English
Default                                  : No
Forced                                   : No

Text #2
ID                                       : 4
Format                                   : UTF-8
Codec ID                                 : S_TEXT/UTF8
Codec ID/Info                            : UTF-8 Plain Text
Duration                                 : 51 min 2 s
Bit rate                                 : 64 b/s
Frame rate                               : 0.219 FPS
Count of elements                        : 671
Stream size                              : 24.1 KiB (0%)
Title                                    : SDH
Language                                 : English
Default                                  : No
Forced                                   : No

Text #3
ID                                       : 5
Format                                   : UTF-8
Codec ID                                 : S_TEXT/UTF8
Codec ID/Info                            : UTF-8 Plain Text
Duration                                 : 51 min 47 s
Bit rate                                 : 95 b/s
Frame rate                               : 0.200 FPS
Count of elements                        : 622
Stream size                              : 36.2 KiB (0%)
Language                                 : Arabic
Default                                  : No
Forced                                   : No

Text #4
ID                                       : 6
Format                                   : UTF-8
Codec ID                                 : S_TEXT/UTF8
Codec ID/Info                            : UTF-8 Plain Text
Duration                                 : 51 min 47 s
Bit rate                                 : 77 b/s
Frame rate                               : 0.170 FPS
Count of elements                        : 528
Stream size                              : 29.4 KiB (0%)
Language                                 : Bulgarian
Default                                  : No
Forced                                   : No

Text #5
ID                                       : 7
Format                                   : UTF-8
Codec ID                                 : S_TEXT/UTF8
Codec ID/Info                            : UTF-8 Plain Text
Duration                                 : 51 min 47 s
Bit rate                                 : 50 b/s
Frame rate                               : 0.184 FPS
Count of elements                        : 572
Stream size                              : 19.2 KiB (0%)
Language                                 : Czech
Default                                  : No
Forced                                   : No

Text #6
ID                                       : 8
Format                                   : UTF-8
Codec ID                                 : S_TEXT/UTF8
Codec ID/Info                            : UTF-8 Plain Text
Duration                                 : 51 min 47 s
Bit rate                                 : 53 b/s
Frame rate                               : 0.176 FPS
Count of elements                        : 546
Stream size                              : 20.5 KiB (0%)
Language                                 : Danish
Default                                  : No
Forced                                   : No

Text #7
ID                                       : 9
Format                                   : UTF-8
Codec ID                                 : S_TEXT/UTF8
Codec ID/Info                            : UTF-8 Plain Text
Duration                                 : 51 min 47 s
Bit rate                                 : 65 b/s
Frame rate                               : 0.196 FPS
Count of elements                        : 610
Stream size                              : 24.8 KiB (0%)
Language                                 : German
Default                                  : No
Forced                                   : No

Text #8
ID                                       : 10
Format                                   : UTF-8
Codec ID                                 : S_TEXT/UTF8
Codec ID/Info                            : UTF-8 Plain Text
Duration                                 : 51 min 47 s
Bit rate                                 : 93 b/s
Frame rate                               : 0.193 FPS
Count of elements                        : 599
Stream size                              : 35.6 KiB (0%)
Language                                 : Greek
Default                                  : No
Forced                                   : No

Text #9
ID                                       : 11
Format                                   : UTF-8
Codec ID                                 : S_TEXT/UTF8
Codec ID/Info                            : UTF-8 Plain Text
Duration                                 : 51 min 47 s
Bit rate                                 : 57 b/s
Frame rate                               : 0.200 FPS
Count of elements                        : 622
Stream size                              : 21.7 KiB (0%)
Language                                 : Spanish
Default                                  : No
Forced                                   : No

Text #10
ID                                       : 12
Format                                   : UTF-8
Codec ID                                 : S_TEXT/UTF8
Codec ID/Info                            : UTF-8 Plain Text
Duration                                 : 51 min 47 s
Bit rate                                 : 56 b/s
Frame rate                               : 0.203 FPS
Count of elements                        : 631
Stream size                              : 21.5 KiB (0%)
Title                                    : Latin American
Language                                 : Spanish
Default                                  : No
Forced                                   : No

Text #11
ID                                       : 13
Format                                   : UTF-8
Codec ID                                 : S_TEXT/UTF8
Codec ID/Info                            : UTF-8 Plain Text
Duration                                 : 51 min 47 s
Bit rate                                 : 52 b/s
Frame rate                               : 0.193 FPS
Count of elements                        : 601
Stream size                              : 19.8 KiB (0%)
Language                                 : Estonian
Default                                  : No
Forced                                   : No

Text #12
ID                                       : 14
Format                                   : UTF-8
Codec ID                                 : S_TEXT/UTF8
Codec ID/Info                            : UTF-8 Plain Text
Duration                                 : 51 min 47 s
Bit rate                                 : 47 b/s
Frame rate                               : 0.185 FPS
Count of elements                        : 575
Stream size                              : 18.0 KiB (0%)
Language                                 : Finnish
Default                                  : No
Forced                                   : No

Text #13
ID                                       : 15
Format                                   : UTF-8
Codec ID                                 : S_TEXT/UTF8
Codec ID/Info                            : UTF-8 Plain Text
Duration                                 : 51 min 45 s
Bit rate                                 : 50 b/s
Frame rate                               : 0.220 FPS
Count of elements                        : 683
Stream size                              : 19.2 KiB (0%)
Language                                 : French
Default                                  : No
Forced                                   : No

Text #14
ID                                       : 16
Format                                   : UTF-8
Codec ID                                 : S_TEXT/UTF8
Codec ID/Info                            : UTF-8 Plain Text
Duration                                 : 51 min 45 s
Bit rate                                 : 50 b/s
Frame rate                               : 0.220 FPS
Count of elements                        : 684
Stream size                              : 19.3 KiB (0%)
Title                                    : Canadian
Language                                 : French
Default                                  : No
Forced                                   : No

Text #15
ID                                       : 17
Format                                   : UTF-8
Codec ID                                 : S_TEXT/UTF8
Codec ID/Info                            : UTF-8 Plain Text
Duration                                 : 51 min 47 s
Bit rate                                 : 85 b/s
Frame rate                               : 0.204 FPS
Count of elements                        : 634
Stream size                              : 32.4 KiB (0%)
Language                                 : Hebrew
Default                                  : No
Forced                                   : No

Text #16
ID                                       : 18
Format                                   : UTF-8
Codec ID                                 : S_TEXT/UTF8
Codec ID/Info                            : UTF-8 Plain Text
Duration                                 : 51 min 47 s
Bit rate                                 : 157 b/s
Frame rate                               : 0.204 FPS
Count of elements                        : 635
Stream size                              : 59.8 KiB (0%)
Language                                 : Hindi
Default                                  : No
Forced                                   : No

Text #17
ID                                       : 19
Format                                   : UTF-8
Codec ID                                 : S_TEXT/UTF8
Codec ID/Info                            : UTF-8 Plain Text
Duration                                 : 51 min 47 s
Bit rate                                 : 55 b/s
Frame rate                               : 0.200 FPS
Count of elements                        : 623
Stream size                              : 21.0 KiB (0%)
Language                                 : Hungarian
Default                                  : No
Forced                                   : No

Text #18
ID                                       : 20
Format                                   : UTF-8
Codec ID                                 : S_TEXT/UTF8
Codec ID/Info                            : UTF-8 Plain Text
Duration                                 : 51 min 47 s
Bit rate                                 : 59 b/s
Frame rate                               : 0.202 FPS
Count of elements                        : 628
Stream size                              : 22.4 KiB (0%)
Language                                 : Indonesian
Default                                  : No
Forced                                   : No

Text #19
ID                                       : 21
Format                                   : UTF-8
Codec ID                                 : S_TEXT/UTF8
Codec ID/Info                            : UTF-8 Plain Text
Duration                                 : 51 min 47 s
Bit rate                                 : 58 b/s
Frame rate                               : 0.205 FPS
Count of elements                        : 636
Stream size                              : 22.1 KiB (0%)
Language                                 : Italian
Default                                  : No
Forced                                   : No

Text #20
ID                                       : 22
Format                                   : UTF-8
Codec ID                                 : S_TEXT/UTF8
Codec ID/Info                            : UTF-8 Plain Text
Duration                                 : 51 min 45 s
Bit rate                                 : 45 b/s
Frame rate                               : 0.196 FPS
Count of elements                        : 610
Stream size                              : 17.2 KiB (0%)
Language                                 : Japanese
Default                                  : No
Forced                                   : No

Text #21
ID                                       : 23
Format                                   : UTF-8
Codec ID                                 : S_TEXT/UTF8
Codec ID/Info                            : UTF-8 Plain Text
Duration                                 : 51 min 47 s
Bit rate                                 : 65 b/s
Frame rate                               : 0.204 FPS
Count of elements                        : 635
Stream size                              : 24.8 KiB (0%)
Language                                 : Korean
Default                                  : No
Forced                                   : No

Text #22
ID                                       : 24
Format                                   : UTF-8
Codec ID                                 : S_TEXT/UTF8
Codec ID/Info                            : UTF-8 Plain Text
Duration                                 : 51 min 47 s
Bit rate                                 : 53 b/s
Frame rate                               : 0.201 FPS
Count of elements                        : 626
Stream size                              : 20.3 KiB (0%)
Language                                 : Lithuanian
Default                                  : No
Forced                                   : No

Text #23
ID                                       : 25
Format                                   : UTF-8
Codec ID                                 : S_TEXT/UTF8
Codec ID/Info                            : UTF-8 Plain Text
Duration                                 : 51 min 47 s
Bit rate                                 : 56 b/s
Frame rate                               : 0.201 FPS
Count of elements                        : 624
Stream size                              : 21.4 KiB (0%)
Language                                 : Latvian
Default                                  : No
Forced                                   : No

Text #24
ID                                       : 26
Format                                   : UTF-8
Codec ID                                 : S_TEXT/UTF8
Codec ID/Info                            : UTF-8 Plain Text
Duration                                 : 51 min 47 s
Bit rate                                 : 55 b/s
Frame rate                               : 0.202 FPS
Count of elements                        : 628
Stream size                              : 21.0 KiB (0%)
Language                                 : Malay
Default                                  : No
Forced                                   : No

Text #25
ID                                       : 27
Format                                   : UTF-8
Codec ID                                 : S_TEXT/UTF8
Codec ID/Info                            : UTF-8 Plain Text
Duration                                 : 51 min 47 s
Bit rate                                 : 50 b/s
Frame rate                               : 0.158 FPS
Count of elements                        : 490
Stream size                              : 19.0 KiB (0%)
Language                                 : Dutch
Default                                  : No
Forced                                   : No

Text #26
ID                                       : 28
Format                                   : UTF-8
Codec ID                                 : S_TEXT/UTF8
Codec ID/Info                            : UTF-8 Plain Text
Duration                                 : 51 min 47 s
Bit rate                                 : 48 b/s
Frame rate                               : 0.162 FPS
Count of elements                        : 502
Stream size                              : 18.3 KiB (0%)
Language                                 : Norwegian
Default                                  : No
Forced                                   : No

Text #27
ID                                       : 29
Format                                   : UTF-8
Codec ID                                 : S_TEXT/UTF8
Codec ID/Info                            : UTF-8 Plain Text
Duration                                 : 51 min 47 s
Bit rate                                 : 50 b/s
Frame rate                               : 0.185 FPS
Count of elements                        : 575
Stream size                              : 19.1 KiB (0%)
Language                                 : Polish
Default                                  : No
Forced                                   : No

Text #28
ID                                       : 30
Format                                   : UTF-8
Codec ID                                 : S_TEXT/UTF8
Codec ID/Info                            : UTF-8 Plain Text
Duration                                 : 51 min 47 s
Bit rate                                 : 55 b/s
Frame rate                               : 0.194 FPS
Count of elements                        : 604
Stream size                              : 20.9 KiB (0%)
Language                                 : Portuguese
Default                                  : No
Forced                                   : No

Text #29
ID                                       : 31
Format                                   : UTF-8
Codec ID                                 : S_TEXT/UTF8
Codec ID/Info                            : UTF-8 Plain Text
Duration                                 : 51 min 47 s
Bit rate                                 : 53 b/s
Frame rate                               : 0.193 FPS
Count of elements                        : 599
Stream size                              : 20.5 KiB (0%)
Title                                    : Brazilian
Language                                 : Portuguese
Default                                  : No
Forced                                   : No

Text #30
ID                                       : 32
Format                                   : UTF-8
Codec ID                                 : S_TEXT/UTF8
Codec ID/Info                            : UTF-8 Plain Text
Duration                                 : 51 min 47 s
Bit rate                                 : 91 b/s
Frame rate                               : 0.203 FPS
Count of elements                        : 632
Stream size                              : 34.7 KiB (0%)
Language                                 : Russian
Default                                  : No
Forced                                   : No

Text #31
ID                                       : 33
Format                                   : UTF-8
Codec ID                                 : S_TEXT/UTF8
Codec ID/Info                            : UTF-8 Plain Text
Duration                                 : 51 min 47 s
Bit rate                                 : 52 b/s
Frame rate                               : 0.203 FPS
Count of elements                        : 631
Stream size                              : 20.1 KiB (0%)
Language                                 : Slovak
Default                                  : No
Forced                                   : No

Text #32
ID                                       : 34
Format                                   : UTF-8
Codec ID                                 : S_TEXT/UTF8
Codec ID/Info                            : UTF-8 Plain Text
Duration                                 : 51 min 47 s
Bit rate                                 : 43 b/s
Frame rate                               : 0.163 FPS
Count of elements                        : 508
Stream size                              : 16.4 KiB (0%)
Language                                 : Slovenian
Default                                  : No
Forced                                   : No

Text #33
ID                                       : 35
Format                                   : UTF-8
Codec ID                                 : S_TEXT/UTF8
Codec ID/Info                            : UTF-8 Plain Text
Duration                                 : 51 min 47 s
Bit rate                                 : 54 b/s
Frame rate                               : 0.202 FPS
Count of elements                        : 628
Stream size                              : 20.8 KiB (0%)
Language                                 : Swedish
Default                                  : No
Forced                                   : No

Text #34
ID                                       : 36
Format                                   : UTF-8
Codec ID                                 : S_TEXT/UTF8
Codec ID/Info                            : UTF-8 Plain Text
Duration                                 : 51 min 47 s
Bit rate                                 : 170 b/s
Frame rate                               : 0.203 FPS
Count of elements                        : 632
Stream size                              : 64.5 KiB (0%)
Language                                 : Tamil
Default                                  : No
Forced                                   : No

Text #35
ID                                       : 37
Format                                   : UTF-8
Codec ID                                 : S_TEXT/UTF8
Codec ID/Info                            : UTF-8 Plain Text
Duration                                 : 51 min 47 s
Bit rate                                 : 165 b/s
Frame rate                               : 0.203 FPS
Count of elements                        : 632
Stream size                              : 62.9 KiB (0%)
Language                                 : Telugu
Default                                  : No
Forced                                   : No

Text #36
ID                                       : 38
Format                                   : UTF-8
Codec ID                                 : S_TEXT/UTF8
Codec ID/Info                            : UTF-8 Plain Text
Duration                                 : 51 min 47 s
Bit rate                                 : 141 b/s
Frame rate                               : 0.203 FPS
Count of elements                        : 632
Stream size                              : 53.7 KiB (0%)
Language                                 : Thai
Default                                  : No
Forced                                   : No

Text #37
ID                                       : 39
Format                                   : UTF-8
Codec ID                                 : S_TEXT/UTF8
Codec ID/Info                            : UTF-8 Plain Text
Duration                                 : 51 min 47 s
Bit rate                                 : 55 b/s
Frame rate                               : 0.198 FPS
Count of elements                        : 614
Stream size                              : 21.1 KiB (0%)
Language                                 : Turkish
Default                                  : No
Forced                                   : No

Text #38
ID                                       : 40
Format                                   : UTF-8
Codec ID                                 : S_TEXT/UTF8
Codec ID/Info                            : UTF-8 Plain Text
Duration                                 : 51 min 47 s
Bit rate                                 : 88 b/s
Frame rate                               : 0.203 FPS
Count of elements                        : 631
Stream size                              : 33.5 KiB (0%)
Language                                 : Ukrainian
Default                                  : No
Forced                                   : No

Text #39
ID                                       : 41
Format                                   : UTF-8
Codec ID                                 : S_TEXT/UTF8
Codec ID/Info                            : UTF-8 Plain Text
Duration                                 : 51 min 47 s
Bit rate                                 : 76 b/s
Frame rate                               : 0.203 FPS
Count of elements                        : 630
Stream size                              : 29.1 KiB (0%)
Language                                 : Vietnamese
Default                                  : No
Forced                                   : No

Text #40
ID                                       : 42
Format                                   : UTF-8
Codec ID                                 : S_TEXT/UTF8
Codec ID/Info                            : UTF-8 Plain Text
Duration                                 : 51 min 47 s
Bit rate                                 : 48 b/s
Frame rate                               : 0.204 FPS
Count of elements                        : 635
Stream size                              : 18.6 KiB (0%)
Title                                    : Traditional
Language                                 : Chinese
Default                                  : No
Forced                                   : No

Text #41
ID                                       : 43
Format                                   : UTF-8
Codec ID                                 : S_TEXT/UTF8
Codec ID/Info                            : UTF-8 Plain Text
Duration                                 : 51 min 47 s
Bit rate                                 : 56 b/s
Frame rate                               : 0.203 FPS
Count of elements                        : 632
Stream size                              : 21.6 KiB (0%)
Title                                    : Mandarin Chinese Simplified
Language                                 : Chinese
Default                                  : No
Forced                                   : No

Text #42
ID                                       : 44
Format                                   : UTF-8
Codec ID                                 : S_TEXT/UTF8
Codec ID/Info                            : UTF-8 Plain Text
Duration                                 : 51 min 47 s
Bit rate                                 : 56 b/s
Frame rate                               : 0.204 FPS
Count of elements                        : 634
Stream size                              : 21.3 KiB (0%)
Title                                    : Mandarin Chinese Traditional
Language                                 : Chinese
Default                                  : No
Forced                                   : No



Download
File Container: MKV
Video/Audio Codec: H264 (HIGH) EAC3
Video Resolution: 1356x678

1 Response to "[RR/NF/CU] Criminal Record S01E06 Beehive 720p ATVP WEB-DL DDP5 1 Atmos H 264-CMRG (1.7GB)"
02/07/24
14:56:53
ReadyPlayerOne

Thank You

Please Login to post a comment.
If you don't have any account, please Register.
  • Subscribe my Feeds
  • Facebook
Encoding Queue:  x264  x265

Latest Episodes

Popular Movies and TV Shows

  • Tracker
  • The Walking Dead: The Ones Who Live
  • Curb Your Enthusiasm
  • The Necro Files
  • I soliti idioti: Il film
  • Eks
  • The Equalizer
  • CSI: Vegas
  • Death in Paradise
  • The Fourth Angel
  • Cold Copy
  • The Pawnshop
  • Ninja Kamui
  • Call the Midwife
  • Will Trent
  • Planetquake
  • Minority Report
  • The Cure
  • Saturday Night Live
  • Belgravia: The Next Chapter
  • House of Gods
  • The Predator
  • Rorschach
  • The Birds
  • S.W.A.T.

Recent Comments

  • vladtoday: Представляем вам Владивосток Сегодня - основное онлай�...
  • timt:

    Enjoy the Carry On Movies!

  • Demonz:

    Subtitles look like Russian, not English ?

  • Katzengoettin:

    Please upload

  • MarcoCosta: First of all, THANK YOU for the RE-upload!Now, as this release doesn't include subtitles for the fre...
  • mentalityx:

    Nice one bloke.

  • mentalityx:

    TY

  • MarcoCosta: is it possible to RE-UP this one (or any other release)? All links from all releases are dead...As a...
  • drorsabi1:

    Fire Country sesason 2 episode 2 is the same as episode 1

  • gasol:

    All ClicknUpload links are down, please reupload

  • aaroz88:

    trimas!!

  • mentalityx:

    Thx for this mate.

  • Thomasnam: Салям тут можно устроиться кладменом [url=https://deliveryjob...
  • lyndak2:

    Episodes 5 & 6 Please!

  • uncabrian:

    Please upload a smaller sixed file if possible.

  • asalan:

    please reupload

Archives