Sign Up   |   Sign In  
The 100th: Billy Joel at Madison Square Garden - The Greatest Arena Run of All TimeFamily GuyThe Banished Former Hero Lives as He PleasesAvoidanceHundreds of BeaversStill: A Michael J. Fox MovieThe SympathizerDune: Part TwoModel HouseAbba: How They Won EurovisionFull SwingThe Great NorthTrackerWhen Calls the HeartSullivan's CrossingThe Batman vs. DraculaKurt Cobain: Moments That Shook MusicThe ChannelFalloutBeacon 23ShogunTrinket BoxThere's Still TomorrowTo Die ForFBI

Announcements

03/31

2024

No

Comments

Fraggle Rock Back to the Rock S02E02 The Twisty-Turny-Thon 720p ATVP WEB-DL DDP5 1 Atmos H 264-FLUX
[RR/NF/CU]
Size: 689MB mkv H264 (HIGH) / EAC3  HD  1280x720

Fraggle Rock: Back to the Rock
File Information
[img]http://lookpic.com/cdn/i2/t/0331202400552349-1.jpg[/img]
[img]http://lookpic.com/cdn/i2/t/0331202400552349-2.jpg[/img]
[img]http://lookpic.com/cdn/i2/t/0331202400552349-3.jpg[/img]

General
Unique ID                                : 19855237318017526507554998603457489190 (0xEEFFAC7BEBF78D07C7FA88922B7E926)
Complete name                            : Fraggle Rock Back to the Rock S02E02 The Twisty-Turny-Thon 720p ATVP WEB-DL DDP5 1 Atmos H 264-FLUX.mkv
Format                                   : Matroska
Format version                           : Version 4
File size                                : 689 MiB
Duration                                 : 27 min 2 s
Overall bit rate                         : 3 564 kb/s
Frame rate                               : 23.976 FPS
Writing application                      : mkvmerge v81.0 ('Milliontown') 64-bit
Writing library                          : libebml v1.4.4 + libmatroska v1.7.1

Video
ID                                       : 1
Format                                   : AVC
Format/Info                              : Advanced Video Codec
Format profile                           : [email protected]
Format settings                          : CABAC / 5 Ref Frames
Format settings, CABAC                   : Yes
Format settings, Reference frames        : 5 frames
Codec ID                                 : V_MPEG4/ISO/AVC
Duration                                 : 27 min 2 s
Bit rate                                 : 2 787 kb/s
Width                                    : 1 280 pixels
Height                                   : 720 pixels
Display aspect ratio                     : 16:9
Frame rate mode                          : Constant
Frame rate                               : 23.976 (24000/1001) FPS
Color space                              : YUV
Chroma subsampling                       : 4:2:0
Bit depth                                : 8 bits
Scan type                                : Progressive
Bits/(Pixel*Frame)                       : 0.126
Stream size                              : 539 MiB (78%)
Language                                 : English
Default                                  : Yes
Forced                                   : No
Color range                              : Limited
Color primaries                          : BT.709
Transfer characteristics                 : BT.709
Matrix coefficients                      : BT.709

Audio
ID                                       : 2
Format                                   : E-AC-3 JOC
Format/Info                              : Enhanced AC-3 with Joint Object Coding
Commercial name                          : Dolby Digital Plus with Dolby Atmos
Codec ID                                 : A_EAC3
Duration                                 : 27 min 2 s
Bit rate mode                            : Constant
Bit rate                                 : 768 kb/s
Channel(s)                               : 6 channels
Channel layout                           : L R C LFE Ls Rs
Sampling rate                            : 48.0 kHz
Frame rate                               : 31.250 FPS (1536 SPF)
Compression mode                         : Lossy
Stream size                              : 149 MiB (22%)
Language                                 : English
Service kind                             : Complete Main
Default                                  : Yes
Forced                                   : No
Complexity index                         : 16
Number of dynamic objects                : 15
Bed channel count                        : 1 channel
Bed channel configuration                : LFE

Text #1
ID                                       : 3
Format                                   : UTF-8
Codec ID                                 : S_TEXT/UTF8
Codec ID/Info                            : UTF-8 Plain Text
Duration                                 : 25 min 2 s
Bit rate                                 : 82 b/s
Frame rate                               : 0.293 FPS
Count of elements                        : 440
Stream size                              : 15.1 KiB (0%)
Language                                 : English
Default                                  : No
Forced                                   : No

Text #2
ID                                       : 4
Format                                   : UTF-8
Codec ID                                 : S_TEXT/UTF8
Codec ID/Info                            : UTF-8 Plain Text
Duration                                 : 25 min 20 s
Bit rate                                 : 108 b/s
Frame rate                               : 0.347 FPS
Count of elements                        : 527
Stream size                              : 20.2 KiB (0%)
Title                                    : SDH
Language                                 : English
Default                                  : No
Forced                                   : No

Text #3
ID                                       : 5
Format                                   : UTF-8
Codec ID                                 : S_TEXT/UTF8
Codec ID/Info                            : UTF-8 Plain Text
Duration                                 : 26 min 28 s
Bit rate                                 : 114 b/s
Frame rate                               : 0.277 FPS
Count of elements                        : 440
Stream size                              : 22.2 KiB (0%)
Language                                 : Arabic
Default                                  : No
Forced                                   : No

Text #4
ID                                       : 6
Format                                   : UTF-8
Codec ID                                 : S_TEXT/UTF8
Codec ID/Info                            : UTF-8 Plain Text
Duration                                 : 26 min 28 s
Bit rate                                 : 105 b/s
Frame rate                               : 0.233 FPS
Count of elements                        : 370
Stream size                              : 20.4 KiB (0%)
Language                                 : Bulgarian
Default                                  : No
Forced                                   : No

Text #5
ID                                       : 7
Format                                   : UTF-8
Codec ID                                 : S_TEXT/UTF8
Codec ID/Info                            : UTF-8 Plain Text
Duration                                 : 26 min 28 s
Bit rate                                 : 66 b/s
Frame rate                               : 0.278 FPS
Count of elements                        : 442
Stream size                              : 12.9 KiB (0%)
Title                                    : Simplified
Language                                 : Chinese (Simplified)
Default                                  : No
Forced                                   : No

Text #6
ID                                       : 8
Format                                   : UTF-8
Codec ID                                 : S_TEXT/UTF8
Codec ID/Info                            : UTF-8 Plain Text
Duration                                 : 26 min 28 s
Bit rate                                 : 68 b/s
Frame rate                               : 0.278 FPS
Count of elements                        : 442
Stream size                              : 13.2 KiB (0%)
Title                                    : Traditional
Language                                 : Chinese (Traditional)
Default                                  : No
Forced                                   : No

Text #7
ID                                       : 9
Format                                   : UTF-8
Codec ID                                 : S_TEXT/UTF8
Codec ID/Info                            : UTF-8 Plain Text
Duration                                 : 26 min 28 s
Bit rate                                 : 66 b/s
Frame rate                               : 0.250 FPS
Count of elements                        : 397
Stream size                              : 13.0 KiB (0%)
Language                                 : Czech
Default                                  : No
Forced                                   : No

Text #8
ID                                       : 10
Format                                   : UTF-8
Codec ID                                 : S_TEXT/UTF8
Codec ID/Info                            : UTF-8 Plain Text
Duration                                 : 26 min 31 s
Bit rate                                 : 73 b/s
Frame rate                               : 0.248 FPS
Count of elements                        : 395
Stream size                              : 14.4 KiB (0%)
Language                                 : Danish
Default                                  : No
Forced                                   : No

Text #9
ID                                       : 11
Format                                   : UTF-8
Codec ID                                 : S_TEXT/UTF8
Codec ID/Info                            : UTF-8 Plain Text
Duration                                 : 25 min 18 s
Bit rate                                 : 80 b/s
Frame rate                               : 0.279 FPS
Count of elements                        : 424
Stream size                              : 14.8 KiB (0%)
Language                                 : German
Default                                  : No
Forced                                   : No

Text #10
ID                                       : 12
Format                                   : UTF-8
Codec ID                                 : S_TEXT/UTF8
Codec ID/Info                            : UTF-8 Plain Text
Duration                                 : 26 min 28 s
Bit rate                                 : 116 b/s
Frame rate                               : 0.263 FPS
Count of elements                        : 417
Stream size                              : 22.5 KiB (0%)
Language                                 : Greek
Default                                  : No
Forced                                   : No

Text #11
ID                                       : 13
Format                                   : UTF-8
Codec ID                                 : S_TEXT/UTF8
Codec ID/Info                            : UTF-8 Plain Text
Duration                                 : 26 min 28 s
Bit rate                                 : 76 b/s
Frame rate                               : 0.278 FPS
Count of elements                        : 441
Stream size                              : 14.9 KiB (0%)
Title                                    : Latin American
Language                                 : Spanish (Latin America)
Default                                  : No
Forced                                   : No

Text #12
ID                                       : 14
Format                                   : UTF-8
Codec ID                                 : S_TEXT/UTF8
Codec ID/Info                            : UTF-8 Plain Text
Duration                                 : 26 min 28 s
Bit rate                                 : 80 b/s
Frame rate                               : 0.276 FPS
Count of elements                        : 439
Stream size                              : 15.6 KiB (0%)
Language                                 : Spanish (ES)
Default                                  : No
Forced                                   : No

Text #13
ID                                       : 15
Format                                   : UTF-8
Codec ID                                 : S_TEXT/UTF8
Codec ID/Info                            : UTF-8 Plain Text
Duration                                 : 26 min 28 s
Bit rate                                 : 68 b/s
Frame rate                               : 0.241 FPS
Count of elements                        : 382
Stream size                              : 13.2 KiB (0%)
Language                                 : Estonian
Default                                  : No
Forced                                   : No

Text #14
ID                                       : 16
Format                                   : UTF-8
Codec ID                                 : S_TEXT/UTF8
Codec ID/Info                            : UTF-8 Plain Text
Duration                                 : 26 min 27 s
Bit rate                                 : 67 b/s
Frame rate                               : 0.262 FPS
Count of elements                        : 416
Stream size                              : 13.1 KiB (0%)
Language                                 : Finnish
Default                                  : No
Forced                                   : No

Text #15
ID                                       : 17
Format                                   : UTF-8
Codec ID                                 : S_TEXT/UTF8
Codec ID/Info                            : UTF-8 Plain Text
Duration                                 : 26 min 27 s
Bit rate                                 : 76 b/s
Frame rate                               : 0.276 FPS
Count of elements                        : 438
Stream size                              : 14.8 KiB (0%)
Title                                    : Canadian
Language                                 : French (CA)
Default                                  : No
Forced                                   : No

Text #16
ID                                       : 18
Format                                   : UTF-8
Codec ID                                 : S_TEXT/UTF8
Codec ID/Info                            : UTF-8 Plain Text
Duration                                 : 26 min 27 s
Bit rate                                 : 76 b/s
Frame rate                               : 0.276 FPS
Count of elements                        : 438
Stream size                              : 14.8 KiB (0%)
Language                                 : French (FR)
Default                                  : No
Forced                                   : No

Text #17
ID                                       : 19
Format                                   : UTF-8
Codec ID                                 : S_TEXT/UTF8
Codec ID/Info                            : UTF-8 Plain Text
Duration                                 : 26 min 28 s
Bit rate                                 : 108 b/s
Frame rate                               : 0.276 FPS
Count of elements                        : 438
Stream size                              : 21.1 KiB (0%)
Language                                 : Hebrew
Default                                  : No
Forced                                   : No

Text #18
ID                                       : 20
Format                                   : UTF-8
Codec ID                                 : S_TEXT/UTF8
Codec ID/Info                            : UTF-8 Plain Text
Duration                                 : 26 min 28 s
Bit rate                                 : 203 b/s
Frame rate                               : 0.280 FPS
Count of elements                        : 444
Stream size                              : 39.4 KiB (0%)
Language                                 : Hindi
Default                                  : No
Forced                                   : No

Text #19
ID                                       : 21
Format                                   : UTF-8
Codec ID                                 : S_TEXT/UTF8
Codec ID/Info                            : UTF-8 Plain Text
Duration                                 : 26 min 28 s
Bit rate                                 : 77 b/s
Frame rate                               : 0.278 FPS
Count of elements                        : 441
Stream size                              : 15.0 KiB (0%)
Language                                 : Hungarian
Default                                  : No
Forced                                   : No

Text #20
ID                                       : 22
Format                                   : UTF-8
Codec ID                                 : S_TEXT/UTF8
Codec ID/Info                            : UTF-8 Plain Text
Duration                                 : 26 min 28 s
Bit rate                                 : 82 b/s
Frame rate                               : 0.277 FPS
Count of elements                        : 440
Stream size                              : 16.0 KiB (0%)
Language                                 : Indonesian
Default                                  : No
Forced                                   : No

Text #21
ID                                       : 23
Format                                   : UTF-8
Codec ID                                 : S_TEXT/UTF8
Codec ID/Info                            : UTF-8 Plain Text
Duration                                 : 25 min 16 s
Bit rate                                 : 86 b/s
Frame rate                               : 0.282 FPS
Count of elements                        : 428
Stream size                              : 16.1 KiB (0%)
Language                                 : Italian
Default                                  : No
Forced                                   : No

Text #22
ID                                       : 24
Format                                   : UTF-8
Codec ID                                 : S_TEXT/UTF8
Codec ID/Info                            : UTF-8 Plain Text
Duration                                 : 26 min 28 s
Bit rate                                 : 64 b/s
Frame rate                               : 0.241 FPS
Count of elements                        : 383
Stream size                              : 12.5 KiB (0%)
Language                                 : Japanese
Default                                  : No
Forced                                   : No

Text #23
ID                                       : 25
Format                                   : UTF-8
Codec ID                                 : S_TEXT/UTF8
Codec ID/Info                            : UTF-8 Plain Text
Duration                                 : 26 min 28 s
Bit rate                                 : 84 b/s
Frame rate                               : 0.279 FPS
Count of elements                        : 443
Stream size                              : 16.4 KiB (0%)
Language                                 : Korean
Default                                  : No
Forced                                   : No

Text #24
ID                                       : 26
Format                                   : UTF-8
Codec ID                                 : S_TEXT/UTF8
Codec ID/Info                            : UTF-8 Plain Text
Duration                                 : 26 min 28 s
Bit rate                                 : 76 b/s
Frame rate                               : 0.278 FPS
Count of elements                        : 441
Stream size                              : 14.8 KiB (0%)
Language                                 : Lithuanian
Default                                  : No
Forced                                   : No

Text #25
ID                                       : 27
Format                                   : UTF-8
Codec ID                                 : S_TEXT/UTF8
Codec ID/Info                            : UTF-8 Plain Text
Duration                                 : 26 min 28 s
Bit rate                                 : 74 b/s
Frame rate                               : 0.269 FPS
Count of elements                        : 427
Stream size                              : 14.5 KiB (0%)
Language                                 : Latvian
Default                                  : No
Forced                                   : No

Text #26
ID                                       : 28
Format                                   : UTF-8
Codec ID                                 : S_TEXT/UTF8
Codec ID/Info                            : UTF-8 Plain Text
Duration                                 : 26 min 28 s
Bit rate                                 : 79 b/s
Frame rate                               : 0.277 FPS
Count of elements                        : 440
Stream size                              : 15.3 KiB (0%)
Language                                 : Malay
Default                                  : No
Forced                                   : No

Text #27
ID                                       : 29
Format                                   : UTF-8
Codec ID                                 : S_TEXT/UTF8
Codec ID/Info                            : UTF-8 Plain Text
Duration                                 : 26 min 28 s
Bit rate                                 : 65 b/s
Frame rate                               : 0.199 FPS
Count of elements                        : 316
Stream size                              : 12.6 KiB (0%)
Language                                 : Dutch
Default                                  : No
Forced                                   : No

Text #28
ID                                       : 30
Format                                   : UTF-8
Codec ID                                 : S_TEXT/UTF8
Codec ID/Info                            : UTF-8 Plain Text
Duration                                 : 26 min 28 s
Bit rate                                 : 72 b/s
Frame rate                               : 0.196 FPS
Count of elements                        : 311
Stream size                              : 14.0 KiB (0%)
Title                                    : Flemish
Language                                 : Dutch (BE)
Default                                  : No
Forced                                   : No

Text #29
ID                                       : 31
Format                                   : UTF-8
Codec ID                                 : S_TEXT/UTF8
Codec ID/Info                            : UTF-8 Plain Text
Duration                                 : 26 min 28 s
Bit rate                                 : 70 b/s
Frame rate                               : 0.220 FPS
Count of elements                        : 350
Stream size                              : 13.6 KiB (0%)
Language                                 : Norwegian
Default                                  : No
Forced                                   : No

Text #30
ID                                       : 32
Format                                   : UTF-8
Codec ID                                 : S_TEXT/UTF8
Codec ID/Info                            : UTF-8 Plain Text
Duration                                 : 25 min 2 s
Bit rate                                 : 76 b/s
Frame rate                               : 0.258 FPS
Count of elements                        : 387
Stream size                              : 14.0 KiB (0%)
Language                                 : Polish
Default                                  : No
Forced                                   : No

Text #31
ID                                       : 33
Format                                   : UTF-8
Codec ID                                 : S_TEXT/UTF8
Codec ID/Info                            : UTF-8 Plain Text
Duration                                 : 26 min 28 s
Bit rate                                 : 69 b/s
Frame rate                               : 0.262 FPS
Count of elements                        : 416
Stream size                              : 13.5 KiB (0%)
Language                                 : Portuguese
Default                                  : No
Forced                                   : No

Text #32
ID                                       : 34
Format                                   : UTF-8
Codec ID                                 : S_TEXT/UTF8
Codec ID/Info                            : UTF-8 Plain Text
Duration                                 : 26 min 28 s
Bit rate                                 : 69 b/s
Frame rate                               : 0.266 FPS
Count of elements                        : 422
Stream size                              : 13.6 KiB (0%)
Title                                    : Brazilian
Language                                 : Portuguese (BR)
Default                                  : No
Forced                                   : No

Text #33
ID                                       : 35
Format                                   : UTF-8
Codec ID                                 : S_TEXT/UTF8
Codec ID/Info                            : UTF-8 Plain Text
Duration                                 : 26 min 28 s
Bit rate                                 : 112 b/s
Frame rate                               : 0.278 FPS
Count of elements                        : 442
Stream size                              : 21.8 KiB (0%)
Language                                 : Russian
Default                                  : No
Forced                                   : No

Text #34
ID                                       : 36
Format                                   : UTF-8
Codec ID                                 : S_TEXT/UTF8
Codec ID/Info                            : UTF-8 Plain Text
Duration                                 : 26 min 28 s
Bit rate                                 : 71 b/s
Frame rate                               : 0.275 FPS
Count of elements                        : 437
Stream size                              : 13.8 KiB (0%)
Language                                 : Slovak
Default                                  : No
Forced                                   : No

Text #35
ID                                       : 37
Format                                   : UTF-8
Codec ID                                 : S_TEXT/UTF8
Codec ID/Info                            : UTF-8 Plain Text
Duration                                 : 26 min 28 s
Bit rate                                 : 60 b/s
Frame rate                               : 0.230 FPS
Count of elements                        : 365
Stream size                              : 11.8 KiB (0%)
Language                                 : Slovenian
Default                                  : No
Forced                                   : No

Text #36
ID                                       : 38
Format                                   : UTF-8
Codec ID                                 : S_TEXT/UTF8
Codec ID/Info                            : UTF-8 Plain Text
Duration                                 : 25 min 18 s
Bit rate                                 : 81 b/s
Frame rate                               : 0.273 FPS
Count of elements                        : 414
Stream size                              : 15.0 KiB (0%)
Language                                 : Swedish
Default                                  : No
Forced                                   : No

Text #37
ID                                       : 39
Format                                   : UTF-8
Codec ID                                 : S_TEXT/UTF8
Codec ID/Info                            : UTF-8 Plain Text
Duration                                 : 26 min 28 s
Bit rate                                 : 231 b/s
Frame rate                               : 0.278 FPS
Count of elements                        : 442
Stream size                              : 44.9 KiB (0%)
Language                                 : Tamil
Default                                  : No
Forced                                   : No

Text #38
ID                                       : 40
Format                                   : UTF-8
Codec ID                                 : S_TEXT/UTF8
Codec ID/Info                            : UTF-8 Plain Text
Duration                                 : 26 min 28 s
Bit rate                                 : 226 b/s
Frame rate                               : 0.280 FPS
Count of elements                        : 444
Stream size                              : 43.9 KiB (0%)
Language                                 : Telugu
Default                                  : No
Forced                                   : No

Text #39
ID                                       : 41
Format                                   : UTF-8
Codec ID                                 : S_TEXT/UTF8
Codec ID/Info                            : UTF-8 Plain Text
Duration                                 : 26 min 28 s
Bit rate                                 : 183 b/s
Frame rate                               : 0.278 FPS
Count of elements                        : 441
Stream size                              : 35.6 KiB (0%)
Language                                 : Thai
Default                                  : No
Forced                                   : No

Text #40
ID                                       : 42
Format                                   : UTF-8
Codec ID                                 : S_TEXT/UTF8
Codec ID/Info                            : UTF-8 Plain Text
Duration                                 : 26 min 28 s
Bit rate                                 : 72 b/s
Frame rate                               : 0.272 FPS
Count of elements                        : 432
Stream size                              : 14.1 KiB (0%)
Language                                 : Turkish
Default                                  : No
Forced                                   : No

Text #41
ID                                       : 43
Format                                   : UTF-8
Codec ID                                 : S_TEXT/UTF8
Codec ID/Info                            : UTF-8 Plain Text
Duration                                 : 26 min 28 s
Bit rate                                 : 111 b/s
Frame rate                               : 0.280 FPS
Count of elements                        : 445
Stream size                              : 21.5 KiB (0%)
Language                                 : Ukrainian
Default                                  : No
Forced                                   : No

Text #42
ID                                       : 44
Format                                   : UTF-8
Codec ID                                 : S_TEXT/UTF8
Codec ID/Info                            : UTF-8 Plain Text
Duration                                 : 26 min 28 s
Bit rate                                 : 93 b/s
Frame rate                               : 0.278 FPS
Count of elements                        : 442
Stream size                              : 18.2 KiB (0%)
Language                                 : Vietnamese
Default                                  : No
Forced                                   : No

Text #43
ID                                       : 45
Format                                   : UTF-8
Codec ID                                 : S_TEXT/UTF8
Codec ID/Info                            : UTF-8 Plain Text
Duration                                 : 26 min 28 s
Bit rate                                 : 63 b/s
Frame rate                               : 0.278 FPS
Count of elements                        : 441
Stream size                              : 12.4 KiB (0%)
Title                                    : Traditional
Language                                 : Cantonese (Hant)
Default                                  : No
Forced                                   : No

Menu
00:00:00.000                             : en:Studio Logo
00:00:15.963                             : en:Intro
00:01:16.963                             : en:Scene 01
00:25:30.041                             : en:Credits



Download
File Container: MKV
Video/Audio Codec: H264 (HIGH) EAC3
Video Resolution: 1280x720
Please Login to post a comment.
If you don't have any account, please Register.
  • Subscribe my Feeds
  • Facebook
Encoding Queue:  x264  x265

Latest Episodes

Popular Movies and TV Shows

  • The 100th: Billy Joel at Madison Square Garden - The Greatest Arena Run of All Time
  • Family Guy
  • The Banished Former Hero Lives as He Pleases
  • Avoidance
  • Hundreds of Beavers
  • Still: A Michael J. Fox Movie
  • The Sympathizer
  • Dune: Part Two
  • Model House
  • Abba: How They Won Eurovision
  • Full Swing
  • The Great North
  • Tracker
  • When Calls the Heart
  • Sullivan's Crossing
  • The Batman vs. Dracula
  • Kurt Cobain: Moments That Shook Music
  • The Channel
  • Fallout
  • Beacon 23
  • Shogun
  • Trinket Box
  • There's Still Tomorrow
  • To Die For
  • FBI

Recent Comments

  • Bud:

    Are you ever going to put up Thursday's episode with Liev Schreiber?

  • alp-engin:

    When will that maintenance be over? Please...

  • mentalityx:

    Rad bloke

  • DownloadHostInspector:

    so far these RMTeam uploads always have a working link. DownloadHostInspector approved!

  • DownloadHostInspector:

    ah yes, this upload has a host that works. clicknupload. DownloadHostInspector approved!

  • DownloadHostInspector: Why are all the download hosts trash? none of them let you download it
  • Qua4ratic:

    clicknupload link plz

  • ppoo:

    Please, can you add "Real Time with Bill Maher S22E11" ??

  • theahtisham:

    Kindly upload Ep. 3 and 4 as well.

Archives