Sign Up   |   Sign In  
Rebel Moon - Part Two: The ScargiverLate Night with the DevilElsbethBlood for DustSo Help Me ToddThe Spiderwick ChroniclesSugarYoung SheldonA Gentleman in MoscowAsphalt CityProblemistaRiver WildManhuntLaw & Order: Special Victims UnitGhostsGhostbusters: Frozen EmpireThe Three Musketeers - Part II: MiladyThe ReaderStar Trek: DiscoveryAmerican Horror StoryFamily GuyYou Were Never Really HereGodzilla x Kong: The New EmpireDune: Part TwoThe Good Doctor

Announcements

03/29

2024

No

Comments

Fraggle Rock Back to the Rock S02E04 The Repeatee Birds 1080p ATVP WEB-DL DDP5 1 Atmos H 264-FLUX
[RR/NF/CU]
Size: 1.9GB mkv H264 (HIGH) / EAC3  HD  1920x1080

Fraggle Rock: Back to the Rock
File Information
[img]http://lookpic.com/cdn/i2/t/0329202407340522-1.jpg[/img]
[img]http://lookpic.com/cdn/i2/t/0329202407340522-2.jpg[/img]
[img]http://lookpic.com/cdn/i2/t/0329202407340522-3.jpg[/img]

General
Unique ID                                : 249994536609845679527136502366167566686 (0xBC13324734A273A47E27CAEF2CA7095E)
Complete name                            : Fraggle Rock Back to the Rock S02E04 The Repeatee Birds 1080p ATVP WEB-DL DDP5 1 Atmos H 264-FLUX.mkv
Format                                   : Matroska
Format version                           : Version 4
File size                                : 1.94 GiB
Duration                                 : 26 min 36 s
Overall bit rate                         : 10.5 Mb/s
Frame rate                               : 23.976 FPS
Writing application                      : mkvmerge v81.0 ('Milliontown') 64-bit
Writing library                          : libebml v1.4.4 + libmatroska v1.7.1

Video
ID                                       : 1
Format                                   : AVC
Format/Info                              : Advanced Video Codec
Format profile                           : High@L4
Format settings                          : CABAC / 4 Ref Frames
Format settings, CABAC                   : Yes
Format settings, Reference frames        : 4 frames
Codec ID                                 : V_MPEG4/ISO/AVC
Duration                                 : 26 min 36 s
Bit rate                                 : 9 684 kb/s
Width                                    : 1 920 pixels
Height                                   : 1 080 pixels
Display aspect ratio                     : 16:9
Frame rate mode                          : Constant
Frame rate                               : 23.976 (24000/1001) FPS
Color space                              : YUV
Chroma subsampling                       : 4:2:0
Bit depth                                : 8 bits
Scan type                                : Progressive
Bits/(Pixel*Frame)                       : 0.195
Stream size                              : 1.80 GiB (93%)
Language                                 : English
Default                                  : Yes
Forced                                   : No
Color range                              : Limited
Color primaries                          : BT.709
Transfer characteristics                 : BT.709
Matrix coefficients                      : BT.709

Audio
ID                                       : 2
Format                                   : E-AC-3 JOC
Format/Info                              : Enhanced AC-3 with Joint Object Coding
Commercial name                          : Dolby Digital Plus with Dolby Atmos
Codec ID                                 : A_EAC3
Duration                                 : 26 min 36 s
Bit rate mode                            : Constant
Bit rate                                 : 768 kb/s
Channel(s)                               : 6 channels
Channel layout                           : L R C LFE Ls Rs
Sampling rate                            : 48.0 kHz
Frame rate                               : 31.250 FPS (1536 SPF)
Compression mode                         : Lossy
Stream size                              : 146 MiB (7%)
Language                                 : English
Service kind                             : Complete Main
Default                                  : Yes
Forced                                   : No
Complexity index                         : 16
Number of dynamic objects                : 15
Bed channel count                        : 1 channel
Bed channel configuration                : LFE

Text #1
ID                                       : 3
Format                                   : UTF-8
Codec ID                                 : S_TEXT/UTF8
Codec ID/Info                            : UTF-8 Plain Text
Duration                                 : 24 min 37 s
Bit rate                                 : 88 b/s
Frame rate                               : 0.321 FPS
Count of elements                        : 474
Stream size                              : 15.9 KiB (0%)
Language                                 : English
Default                                  : No
Forced                                   : No

Text #2
ID                                       : 4
Format                                   : UTF-8
Codec ID                                 : S_TEXT/UTF8
Codec ID/Info                            : UTF-8 Plain Text
Duration                                 : 24 min 54 s
Bit rate                                 : 118 b/s
Frame rate                               : 0.366 FPS
Count of elements                        : 547
Stream size                              : 21.6 KiB (0%)
Title                                    : SDH
Language                                 : English
Default                                  : No
Forced                                   : No

Text #3
ID                                       : 5
Format                                   : UTF-8
Codec ID                                 : S_TEXT/UTF8
Codec ID/Info                            : UTF-8 Plain Text
Duration                                 : 26 min 2 s
Bit rate                                 : 119 b/s
Frame rate                               : 0.302 FPS
Count of elements                        : 472
Stream size                              : 22.9 KiB (0%)
Language                                 : Arabic
Default                                  : No
Forced                                   : No

Text #4
ID                                       : 6
Format                                   : UTF-8
Codec ID                                 : S_TEXT/UTF8
Codec ID/Info                            : UTF-8 Plain Text
Duration                                 : 26 min 2 s
Bit rate                                 : 111 b/s
Frame rate                               : 0.248 FPS
Count of elements                        : 387
Stream size                              : 21.2 KiB (0%)
Language                                 : Bulgarian
Default                                  : No
Forced                                   : No

Text #5
ID                                       : 7
Format                                   : UTF-8
Codec ID                                 : S_TEXT/UTF8
Codec ID/Info                            : UTF-8 Plain Text
Duration                                 : 26 min 2 s
Bit rate                                 : 66 b/s
Frame rate                               : 0.303 FPS
Count of elements                        : 473
Stream size                              : 12.7 KiB (0%)
Title                                    : Simplified
Language                                 : Chinese (Simplified)
Default                                  : No
Forced                                   : No

Text #6
ID                                       : 8
Format                                   : UTF-8
Codec ID                                 : S_TEXT/UTF8
Codec ID/Info                            : UTF-8 Plain Text
Duration                                 : 26 min 2 s
Bit rate                                 : 71 b/s
Frame rate                               : 0.303 FPS
Count of elements                        : 474
Stream size                              : 13.7 KiB (0%)
Title                                    : Traditional
Language                                 : Chinese (Traditional)
Default                                  : No
Forced                                   : No

Text #7
ID                                       : 9
Format                                   : UTF-8
Codec ID                                 : S_TEXT/UTF8
Codec ID/Info                            : UTF-8 Plain Text
Duration                                 : 26 min 2 s
Bit rate                                 : 70 b/s
Frame rate                               : 0.270 FPS
Count of elements                        : 422
Stream size                              : 13.4 KiB (0%)
Language                                 : Czech
Default                                  : No
Forced                                   : No

Text #8
ID                                       : 10
Format                                   : UTF-8
Codec ID                                 : S_TEXT/UTF8
Codec ID/Info                            : UTF-8 Plain Text
Duration                                 : 26 min 5 s
Bit rate                                 : 80 b/s
Frame rate                               : 0.255 FPS
Count of elements                        : 399
Stream size                              : 15.3 KiB (0%)
Language                                 : Danish
Default                                  : No
Forced                                   : No

Text #9
ID                                       : 11
Format                                   : UTF-8
Codec ID                                 : S_TEXT/UTF8
Codec ID/Info                            : UTF-8 Plain Text
Duration                                 : 24 min 54 s
Bit rate                                 : 83 b/s
Frame rate                               : 0.298 FPS
Count of elements                        : 445
Stream size                              : 15.2 KiB (0%)
Language                                 : German
Default                                  : No
Forced                                   : No

Text #10
ID                                       : 12
Format                                   : UTF-8
Codec ID                                 : S_TEXT/UTF8
Codec ID/Info                            : UTF-8 Plain Text
Duration                                 : 26 min 2 s
Bit rate                                 : 119 b/s
Frame rate                               : 0.285 FPS
Count of elements                        : 445
Stream size                              : 22.8 KiB (0%)
Language                                 : Greek
Default                                  : No
Forced                                   : No

Text #11
ID                                       : 13
Format                                   : UTF-8
Codec ID                                 : S_TEXT/UTF8
Codec ID/Info                            : UTF-8 Plain Text
Duration                                 : 26 min 2 s
Bit rate                                 : 80 b/s
Frame rate                               : 0.305 FPS
Count of elements                        : 476
Stream size                              : 15.4 KiB (0%)
Title                                    : Latin American
Language                                 : Spanish (Latin America)
Default                                  : No
Forced                                   : No

Text #12
ID                                       : 14
Format                                   : UTF-8
Codec ID                                 : S_TEXT/UTF8
Codec ID/Info                            : UTF-8 Plain Text
Duration                                 : 26 min 2 s
Bit rate                                 : 85 b/s
Frame rate                               : 0.292 FPS
Count of elements                        : 456
Stream size                              : 16.3 KiB (0%)
Language                                 : Spanish (ES)
Default                                  : No
Forced                                   : No

Text #13
ID                                       : 15
Format                                   : UTF-8
Codec ID                                 : S_TEXT/UTF8
Codec ID/Info                            : UTF-8 Plain Text
Duration                                 : 26 min 2 s
Bit rate                                 : 71 b/s
Frame rate                               : 0.257 FPS
Count of elements                        : 401
Stream size                              : 13.6 KiB (0%)
Language                                 : Estonian
Default                                  : No
Forced                                   : No

Text #14
ID                                       : 16
Format                                   : UTF-8
Codec ID                                 : S_TEXT/UTF8
Codec ID/Info                            : UTF-8 Plain Text
Duration                                 : 26 min 1 s
Bit rate                                 : 72 b/s
Frame rate                               : 0.269 FPS
Count of elements                        : 420
Stream size                              : 13.9 KiB (0%)
Language                                 : Finnish
Default                                  : No
Forced                                   : No

Text #15
ID                                       : 17
Format                                   : UTF-8
Codec ID                                 : S_TEXT/UTF8
Codec ID/Info                            : UTF-8 Plain Text
Duration                                 : 26 min 1 s
Bit rate                                 : 78 b/s
Frame rate                               : 0.308 FPS
Count of elements                        : 481
Stream size                              : 15.0 KiB (0%)
Title                                    : Canadian
Language                                 : French (CA)
Default                                  : No
Forced                                   : No

Text #16
ID                                       : 18
Format                                   : UTF-8
Codec ID                                 : S_TEXT/UTF8
Codec ID/Info                            : UTF-8 Plain Text
Duration                                 : 26 min 1 s
Bit rate                                 : 78 b/s
Frame rate                               : 0.308 FPS
Count of elements                        : 481
Stream size                              : 15.0 KiB (0%)
Language                                 : French (FR)
Default                                  : No
Forced                                   : No

Text #17
ID                                       : 19
Format                                   : UTF-8
Codec ID                                 : S_TEXT/UTF8
Codec ID/Info                            : UTF-8 Plain Text
Duration                                 : 26 min 2 s
Bit rate                                 : 117 b/s
Frame rate                               : 0.303 FPS
Count of elements                        : 473
Stream size                              : 22.4 KiB (0%)
Language                                 : Hebrew
Default                                  : No
Forced                                   : No

Text #18
ID                                       : 20
Format                                   : UTF-8
Codec ID                                 : S_TEXT/UTF8
Codec ID/Info                            : UTF-8 Plain Text
Duration                                 : 26 min 2 s
Bit rate                                 : 209 b/s
Frame rate                               : 0.303 FPS
Count of elements                        : 474
Stream size                              : 39.9 KiB (0%)
Language                                 : Hindi
Default                                  : No
Forced                                   : No

Text #19
ID                                       : 21
Format                                   : UTF-8
Codec ID                                 : S_TEXT/UTF8
Codec ID/Info                            : UTF-8 Plain Text
Duration                                 : 26 min 2 s
Bit rate                                 : 80 b/s
Frame rate                               : 0.303 FPS
Count of elements                        : 474
Stream size                              : 15.4 KiB (0%)
Language                                 : Hungarian
Default                                  : No
Forced                                   : No

Text #20
ID                                       : 22
Format                                   : UTF-8
Codec ID                                 : S_TEXT/UTF8
Codec ID/Info                            : UTF-8 Plain Text
Duration                                 : 26 min 2 s
Bit rate                                 : 84 b/s
Frame rate                               : 0.303 FPS
Count of elements                        : 474
Stream size                              : 16.1 KiB (0%)
Language                                 : Indonesian
Default                                  : No
Forced                                   : No

Text #21
ID                                       : 23
Format                                   : UTF-8
Codec ID                                 : S_TEXT/UTF8
Codec ID/Info                            : UTF-8 Plain Text
Duration                                 : 24 min 50 s
Bit rate                                 : 92 b/s
Frame rate                               : 0.299 FPS
Count of elements                        : 446
Stream size                              : 16.8 KiB (0%)
Language                                 : Italian
Default                                  : No
Forced                                   : No

Text #22
ID                                       : 24
Format                                   : UTF-8
Codec ID                                 : S_TEXT/UTF8
Codec ID/Info                            : UTF-8 Plain Text
Duration                                 : 26 min 2 s
Bit rate                                 : 68 b/s
Frame rate                               : 0.289 FPS
Count of elements                        : 451
Stream size                              : 13.0 KiB (0%)
Language                                 : Japanese
Default                                  : No
Forced                                   : No

Text #23
ID                                       : 25
Format                                   : UTF-8
Codec ID                                 : S_TEXT/UTF8
Codec ID/Info                            : UTF-8 Plain Text
Duration                                 : 26 min 2 s
Bit rate                                 : 81 b/s
Frame rate                               : 0.302 FPS
Count of elements                        : 472
Stream size                              : 15.5 KiB (0%)
Language                                 : Korean
Default                                  : No
Forced                                   : No

Text #24
ID                                       : 26
Format                                   : UTF-8
Codec ID                                 : S_TEXT/UTF8
Codec ID/Info                            : UTF-8 Plain Text
Duration                                 : 26 min 2 s
Bit rate                                 : 80 b/s
Frame rate                               : 0.301 FPS
Count of elements                        : 470
Stream size                              : 15.4 KiB (0%)
Language                                 : Lithuanian
Default                                  : No
Forced                                   : No

Text #25
ID                                       : 27
Format                                   : UTF-8
Codec ID                                 : S_TEXT/UTF8
Codec ID/Info                            : UTF-8 Plain Text
Duration                                 : 26 min 2 s
Bit rate                                 : 78 b/s
Frame rate                               : 0.292 FPS
Count of elements                        : 456
Stream size                              : 15.0 KiB (0%)
Language                                 : Latvian
Default                                  : No
Forced                                   : No

Text #26
ID                                       : 28
Format                                   : UTF-8
Codec ID                                 : S_TEXT/UTF8
Codec ID/Info                            : UTF-8 Plain Text
Duration                                 : 26 min 2 s
Bit rate                                 : 84 b/s
Frame rate                               : 0.303 FPS
Count of elements                        : 474
Stream size                              : 16.1 KiB (0%)
Language                                 : Malay
Default                                  : No
Forced                                   : No

Text #27
ID                                       : 29
Format                                   : UTF-8
Codec ID                                 : S_TEXT/UTF8
Codec ID/Info                            : UTF-8 Plain Text
Duration                                 : 26 min 2 s
Bit rate                                 : 75 b/s
Frame rate                               : 0.210 FPS
Count of elements                        : 328
Stream size                              : 14.3 KiB (0%)
Language                                 : Dutch
Default                                  : No
Forced                                   : No

Text #28
ID                                       : 30
Format                                   : UTF-8
Codec ID                                 : S_TEXT/UTF8
Codec ID/Info                            : UTF-8 Plain Text
Duration                                 : 26 min 2 s
Bit rate                                 : 67 b/s
Frame rate                               : 0.224 FPS
Count of elements                        : 350
Stream size                              : 12.8 KiB (0%)
Title                                    : Flemish
Language                                 : Dutch (BE)
Default                                  : No
Forced                                   : No

Text #29
ID                                       : 31
Format                                   : UTF-8
Codec ID                                 : S_TEXT/UTF8
Codec ID/Info                            : UTF-8 Plain Text
Duration                                 : 26 min 2 s
Bit rate                                 : 73 b/s
Frame rate                               : 0.261 FPS
Count of elements                        : 408
Stream size                              : 14.0 KiB (0%)
Language                                 : Norwegian
Default                                  : No
Forced                                   : No

Text #30
ID                                       : 32
Format                                   : UTF-8
Codec ID                                 : S_TEXT/UTF8
Codec ID/Info                            : UTF-8 Plain Text
Duration                                 : 24 min 37 s
Bit rate                                 : 77 b/s
Frame rate                               : 0.277 FPS
Count of elements                        : 409
Stream size                              : 13.9 KiB (0%)
Language                                 : Polish
Default                                  : No
Forced                                   : No

Text #31
ID                                       : 33
Format                                   : UTF-8
Codec ID                                 : S_TEXT/UTF8
Codec ID/Info                            : UTF-8 Plain Text
Duration                                 : 26 min 2 s
Bit rate                                 : 75 b/s
Frame rate                               : 0.290 FPS
Count of elements                        : 453
Stream size                              : 14.5 KiB (0%)
Language                                 : Portuguese
Default                                  : No
Forced                                   : No

Text #32
ID                                       : 34
Format                                   : UTF-8
Codec ID                                 : S_TEXT/UTF8
Codec ID/Info                            : UTF-8 Plain Text
Duration                                 : 26 min 2 s
Bit rate                                 : 71 b/s
Frame rate                               : 0.284 FPS
Count of elements                        : 444
Stream size                              : 13.7 KiB (0%)
Title                                    : Brazilian
Language                                 : Portuguese (BR)
Default                                  : No
Forced                                   : No

Text #33
ID                                       : 35
Format                                   : UTF-8
Codec ID                                 : S_TEXT/UTF8
Codec ID/Info                            : UTF-8 Plain Text
Duration                                 : 26 min 2 s
Bit rate                                 : 123 b/s
Frame rate                               : 0.305 FPS
Count of elements                        : 476
Stream size                              : 23.5 KiB (0%)
Language                                 : Russian
Default                                  : No
Forced                                   : No

Text #34
ID                                       : 36
Format                                   : UTF-8
Codec ID                                 : S_TEXT/UTF8
Codec ID/Info                            : UTF-8 Plain Text
Duration                                 : 26 min 2 s
Bit rate                                 : 73 b/s
Frame rate                               : 0.301 FPS
Count of elements                        : 471
Stream size                              : 14.0 KiB (0%)
Language                                 : Slovak
Default                                  : No
Forced                                   : No

Text #35
ID                                       : 37
Format                                   : UTF-8
Codec ID                                 : S_TEXT/UTF8
Codec ID/Info                            : UTF-8 Plain Text
Duration                                 : 26 min 2 s
Bit rate                                 : 66 b/s
Frame rate                               : 0.246 FPS
Count of elements                        : 385
Stream size                              : 12.8 KiB (0%)
Language                                 : Slovenian
Default                                  : No
Forced                                   : No

Text #36
ID                                       : 38
Format                                   : UTF-8
Codec ID                                 : S_TEXT/UTF8
Codec ID/Info                            : UTF-8 Plain Text
Duration                                 : 24 min 52 s
Bit rate                                 : 85 b/s
Frame rate                               : 0.293 FPS
Count of elements                        : 437
Stream size                              : 15.6 KiB (0%)
Language                                 : Swedish
Default                                  : No
Forced                                   : No

Text #37
ID                                       : 39
Format                                   : UTF-8
Codec ID                                 : S_TEXT/UTF8
Codec ID/Info                            : UTF-8 Plain Text
Duration                                 : 26 min 2 s
Bit rate                                 : 264 b/s
Frame rate                               : 0.304 FPS
Count of elements                        : 475
Stream size                              : 50.5 KiB (0%)
Language                                 : Tamil
Default                                  : No
Forced                                   : No

Text #38
ID                                       : 40
Format                                   : UTF-8
Codec ID                                 : S_TEXT/UTF8
Codec ID/Info                            : UTF-8 Plain Text
Duration                                 : 26 min 2 s
Bit rate                                 : 239 b/s
Frame rate                               : 0.303 FPS
Count of elements                        : 474
Stream size                              : 45.7 KiB (0%)
Language                                 : Telugu
Default                                  : No
Forced                                   : No

Text #39
ID                                       : 41
Format                                   : UTF-8
Codec ID                                 : S_TEXT/UTF8
Codec ID/Info                            : UTF-8 Plain Text
Duration                                 : 26 min 2 s
Bit rate                                 : 196 b/s
Frame rate                               : 0.302 FPS
Count of elements                        : 472
Stream size                              : 37.5 KiB (0%)
Language                                 : Thai
Default                                  : No
Forced                                   : No

Text #40
ID                                       : 42
Format                                   : UTF-8
Codec ID                                 : S_TEXT/UTF8
Codec ID/Info                            : UTF-8 Plain Text
Duration                                 : 26 min 2 s
Bit rate                                 : 78 b/s
Frame rate                               : 0.296 FPS
Count of elements                        : 462
Stream size                              : 14.9 KiB (0%)
Language                                 : Turkish
Default                                  : No
Forced                                   : No

Text #41
ID                                       : 43
Format                                   : UTF-8
Codec ID                                 : S_TEXT/UTF8
Codec ID/Info                            : UTF-8 Plain Text
Duration                                 : 26 min 2 s
Bit rate                                 : 120 b/s
Frame rate                               : 0.304 FPS
Count of elements                        : 475
Stream size                              : 22.9 KiB (0%)
Language                                 : Ukrainian
Default                                  : No
Forced                                   : No

Text #42
ID                                       : 44
Format                                   : UTF-8
Codec ID                                 : S_TEXT/UTF8
Codec ID/Info                            : UTF-8 Plain Text
Duration                                 : 26 min 2 s
Bit rate                                 : 97 b/s
Frame rate                               : 0.304 FPS
Count of elements                        : 475
Stream size                              : 18.6 KiB (0%)
Language                                 : Vietnamese
Default                                  : No
Forced                                   : No

Text #43
ID                                       : 45
Format                                   : UTF-8
Codec ID                                 : S_TEXT/UTF8
Codec ID/Info                            : UTF-8 Plain Text
Duration                                 : 26 min 2 s
Bit rate                                 : 68 b/s
Frame rate                               : 0.303 FPS
Count of elements                        : 474
Stream size                              : 13.1 KiB (0%)
Title                                    : Traditional
Language                                 : Cantonese (Hant)
Default                                  : No
Forced                                   : No

Menu
00:00:00.000                             : en:Studio Logo
00:00:15.963                             : en:Intro
00:01:17.004                             : en:Scene 01
00:25:04.000                             : en:Credits



Download
File Container: MKV
Video/Audio Codec: H264 (HIGH) EAC3
Video Resolution: 1920x1080
Please Login to post a comment.
If you don't have any account, please Register.
  • Subscribe my Feeds
  • Facebook
Encoding Queue:  x264  x265

Latest Episodes

Popular Movies and TV Shows

  • Rebel Moon - Part Two: The Scargiver
  • Late Night with the Devil
  • Elsbeth
  • Blood for Dust
  • So Help Me Todd
  • The Spiderwick Chronicles
  • Sugar
  • Young Sheldon
  • A Gentleman in Moscow
  • Asphalt City
  • Problemista
  • River Wild
  • Manhunt
  • Law & Order: Special Victims Unit
  • Ghosts
  • Ghostbusters: Frozen Empire
  • The Three Musketeers - Part II: Milady
  • The Reader
  • Star Trek: Discovery
  • American Horror Story
  • Family Guy
  • You Were Never Really Here
  • Godzilla x Kong: The New Empire
  • Dune: Part Two
  • The Good Doctor

Recent Comments

  • 23d1:

    ClicknUpload link is missing

  • yopo:

    NitroFlare's link is missing !!!

  • yopo:

    NitroFlare's link is missing !!!

  • yopo:

    NitroFlare's link is missing !!!
    Clicknupload's link is missing !!!

  • yopo:

    NitroFlare's link is missing !!!

  • dragonnightfire: I have tried contacting Rapid Rar to find out what is going on with the server maintainance. I am no...
  • dragonnightfire:

    RR links dead on 5 eps

  • Draveren: hi. can we solve this "server under maintenance" stuff, already? if back in the day i'd ke...
  • Majnon: The links are dead. Please re-upload
  • timt:

    Anyone have the movie "Shoot" (1976) to post?

  • Nightshade: Hey, it appears at least the RMTeam separate episodes and ION's packs for the first two seasons of t...
  • Bigfishguy:

    There's no free option to download this video. Can someone please upload it to clicknupload?

  • timt:

    Junk

  • timt:

    CAM Audio

  • timt:

    Hard Coded SUMS! Russian, I Think.

  • ubirattan:

    Mandem um Fikper, por favor.

  • kellym2: No answer yet for my query - why all the episodes "server under maintenance" on some episo...
  • Majnon:

    Rapidrar links are dead :(

  • Rake:

    Loads of "Server is under maintenance" with RR theese days...

Archives