Sign Up   |   Sign In  
Rebel Moon - Part Two: The ScargiverSugarYoung SheldonA Gentleman in MoscowLate Night with the DevilAsphalt CityBlood for DustElsbethLaw & Order: Special Victims UnitManhuntGhostbusters: Frozen EmpireThe Three Musketeers - Part II: MiladyThe ReaderStar Trek: DiscoveryAmerican Horror StoryFamily GuyYou Were Never Really HereGodzilla x Kong: The New EmpireLa margeThe Good DoctorFBIStar Wars: The Bad BatchImmaculateDune: Part TwoAn American Bombing: The Road to April 19th

Announcements

03/29

2024

No

Comments

Fraggle Rock Back to the Rock S02E10 Fraggle Up 1080p ATVP WEB-DL DDP5 1 Atmos H 264-FLUX
[RR/NF]
Size: 2.1GB mkv H264 (HIGH) / EAC3  HD  1920x1080

Fraggle Rock: Back to the Rock
File Information
[img]http://lookpic.com/cdn/i2/t/0329202407395522-1.jpg[/img]
[img]http://lookpic.com/cdn/i2/t/0329202407395522-2.jpg[/img]
[img]http://lookpic.com/cdn/i2/t/0329202407395522-3.jpg[/img]

General
Unique ID                                : 36601488716411488079580978806623639730 (0x1B8930B85719FC403C7BFAE4E2B118B2)
Complete name                            : Fraggle Rock Back to the Rock S02E10 Fraggle Up 1080p ATVP WEB-DL DDP5 1 Atmos H 264-FLUX.mkv
Format                                   : Matroska
Format version                           : Version 4
File size                                : 2.12 GiB
Duration                                 : 28 min 36 s
Overall bit rate                         : 10.6 Mb/s
Frame rate                               : 23.976 FPS
Writing application                      : mkvmerge v81.0 ('Milliontown') 64-bit
Writing library                          : libebml v1.4.4 + libmatroska v1.7.1

Video
ID                                       : 1
Format                                   : AVC
Format/Info                              : Advanced Video Codec
Format profile                           : High@L4
Format settings                          : CABAC / 4 Ref Frames
Format settings, CABAC                   : Yes
Format settings, Reference frames        : 4 frames
Codec ID                                 : V_MPEG4/ISO/AVC
Duration                                 : 28 min 36 s
Bit rate                                 : 9 808 kb/s
Width                                    : 1 920 pixels
Height                                   : 1 080 pixels
Display aspect ratio                     : 16:9
Frame rate mode                          : Constant
Frame rate                               : 23.976 (24000/1001) FPS
Color space                              : YUV
Chroma subsampling                       : 4:2:0
Bit depth                                : 8 bits
Scan type                                : Progressive
Bits/(Pixel*Frame)                       : 0.197
Stream size                              : 1.96 GiB (93%)
Language                                 : English
Default                                  : Yes
Forced                                   : No
Color range                              : Limited
Color primaries                          : BT.709
Transfer characteristics                 : BT.709
Matrix coefficients                      : BT.709

Audio
ID                                       : 2
Format                                   : E-AC-3 JOC
Format/Info                              : Enhanced AC-3 with Joint Object Coding
Commercial name                          : Dolby Digital Plus with Dolby Atmos
Codec ID                                 : A_EAC3
Duration                                 : 28 min 36 s
Bit rate mode                            : Constant
Bit rate                                 : 768 kb/s
Channel(s)                               : 6 channels
Channel layout                           : L R C LFE Ls Rs
Sampling rate                            : 48.0 kHz
Frame rate                               : 31.250 FPS (1536 SPF)
Compression mode                         : Lossy
Stream size                              : 157 MiB (7%)
Language                                 : English
Service kind                             : Complete Main
Default                                  : Yes
Forced                                   : No
Complexity index                         : 16
Number of dynamic objects                : 15
Bed channel count                        : 1 channel
Bed channel configuration                : LFE

Text #1
ID                                       : 3
Format                                   : UTF-8
Codec ID                                 : S_TEXT/UTF8
Codec ID/Info                            : UTF-8 Plain Text
Duration                                 : 26 min 32 s
Bit rate                                 : 82 b/s
Frame rate                               : 0.281 FPS
Count of elements                        : 447
Stream size                              : 16.0 KiB (0%)
Language                                 : English
Default                                  : No
Forced                                   : No

Text #2
ID                                       : 4
Format                                   : UTF-8
Codec ID                                 : S_TEXT/UTF8
Codec ID/Info                            : UTF-8 Plain Text
Duration                                 : 26 min 48 s
Bit rate                                 : 105 b/s
Frame rate                               : 0.333 FPS
Count of elements                        : 536
Stream size                              : 20.7 KiB (0%)
Title                                    : SDH
Language                                 : English
Default                                  : No
Forced                                   : No

Text #3
ID                                       : 5
Format                                   : UTF-8
Codec ID                                 : S_TEXT/UTF8
Codec ID/Info                            : UTF-8 Plain Text
Duration                                 : 28 min 2 s
Bit rate                                 : 112 b/s
Frame rate                               : 0.264 FPS
Count of elements                        : 445
Stream size                              : 23.1 KiB (0%)
Language                                 : Arabic
Default                                  : No
Forced                                   : No

Text #4
ID                                       : 6
Format                                   : UTF-8
Codec ID                                 : S_TEXT/UTF8
Codec ID/Info                            : UTF-8 Plain Text
Duration                                 : 28 min 2 s
Bit rate                                 : 102 b/s
Frame rate                               : 0.215 FPS
Count of elements                        : 361
Stream size                              : 21.0 KiB (0%)
Language                                 : Bulgarian
Default                                  : No
Forced                                   : No

Text #5
ID                                       : 7
Format                                   : UTF-8
Codec ID                                 : S_TEXT/UTF8
Codec ID/Info                            : UTF-8 Plain Text
Duration                                 : 28 min 2 s
Bit rate                                 : 67 b/s
Frame rate                               : 0.267 FPS
Count of elements                        : 449
Stream size                              : 13.9 KiB (0%)
Title                                    : Simplified
Language                                 : Chinese (Simplified)
Default                                  : No
Forced                                   : No

Text #6
ID                                       : 8
Format                                   : UTF-8
Codec ID                                 : S_TEXT/UTF8
Codec ID/Info                            : UTF-8 Plain Text
Duration                                 : 28 min 2 s
Bit rate                                 : 67 b/s
Frame rate                               : 0.267 FPS
Count of elements                        : 449
Stream size                              : 13.8 KiB (0%)
Title                                    : Traditional
Language                                 : Chinese (Traditional)
Default                                  : No
Forced                                   : No

Text #7
ID                                       : 9
Format                                   : UTF-8
Codec ID                                 : S_TEXT/UTF8
Codec ID/Info                            : UTF-8 Plain Text
Duration                                 : 28 min 2 s
Bit rate                                 : 67 b/s
Frame rate                               : 0.244 FPS
Count of elements                        : 411
Stream size                              : 13.8 KiB (0%)
Language                                 : Czech
Default                                  : No
Forced                                   : No

Text #8
ID                                       : 10
Format                                   : UTF-8
Codec ID                                 : S_TEXT/UTF8
Codec ID/Info                            : UTF-8 Plain Text
Duration                                 : 26 min 52 s
Bit rate                                 : 77 b/s
Frame rate                               : 0.266 FPS
Count of elements                        : 429
Stream size                              : 15.2 KiB (0%)
Language                                 : Danish
Default                                  : No
Forced                                   : No

Text #9
ID                                       : 11
Format                                   : UTF-8
Codec ID                                 : S_TEXT/UTF8
Codec ID/Info                            : UTF-8 Plain Text
Duration                                 : 26 min 56 s
Bit rate                                 : 78 b/s
Frame rate                               : 0.249 FPS
Count of elements                        : 403
Stream size                              : 15.5 KiB (0%)
Language                                 : German
Default                                  : No
Forced                                   : No

Text #10
ID                                       : 12
Format                                   : UTF-8
Codec ID                                 : S_TEXT/UTF8
Codec ID/Info                            : UTF-8 Plain Text
Duration                                 : 28 min 2 s
Bit rate                                 : 114 b/s
Frame rate                               : 0.250 FPS
Count of elements                        : 421
Stream size                              : 23.6 KiB (0%)
Language                                 : Greek
Default                                  : No
Forced                                   : No

Text #11
ID                                       : 13
Format                                   : UTF-8
Codec ID                                 : S_TEXT/UTF8
Codec ID/Info                            : UTF-8 Plain Text
Duration                                 : 28 min 2 s
Bit rate                                 : 76 b/s
Frame rate                               : 0.263 FPS
Count of elements                        : 442
Stream size                              : 15.8 KiB (0%)
Title                                    : Latin American
Language                                 : Spanish (Latin America)
Default                                  : No
Forced                                   : No

Text #12
ID                                       : 14
Format                                   : UTF-8
Codec ID                                 : S_TEXT/UTF8
Codec ID/Info                            : UTF-8 Plain Text
Duration                                 : 28 min 2 s
Bit rate                                 : 79 b/s
Frame rate                               : 0.273 FPS
Count of elements                        : 459
Stream size                              : 16.4 KiB (0%)
Language                                 : Spanish (ES)
Default                                  : No
Forced                                   : No

Text #13
ID                                       : 15
Format                                   : UTF-8
Codec ID                                 : S_TEXT/UTF8
Codec ID/Info                            : UTF-8 Plain Text
Duration                                 : 28 min 2 s
Bit rate                                 : 65 b/s
Frame rate                               : 0.226 FPS
Count of elements                        : 381
Stream size                              : 13.5 KiB (0%)
Language                                 : Estonian
Default                                  : No
Forced                                   : No

Text #14
ID                                       : 16
Format                                   : UTF-8
Codec ID                                 : S_TEXT/UTF8
Codec ID/Info                            : UTF-8 Plain Text
Duration                                 : 28 min 0 s
Bit rate                                 : 68 b/s
Frame rate                               : 0.214 FPS
Count of elements                        : 360
Stream size                              : 14.1 KiB (0%)
Language                                 : Finnish
Default                                  : No
Forced                                   : No

Text #15
ID                                       : 17
Format                                   : UTF-8
Codec ID                                 : S_TEXT/UTF8
Codec ID/Info                            : UTF-8 Plain Text
Duration                                 : 27 min 49 s
Bit rate                                 : 75 b/s
Frame rate                               : 0.283 FPS
Count of elements                        : 473
Stream size                              : 15.3 KiB (0%)
Title                                    : Canadian
Language                                 : French (CA)
Default                                  : No
Forced                                   : No

Text #16
ID                                       : 18
Format                                   : UTF-8
Codec ID                                 : S_TEXT/UTF8
Codec ID/Info                            : UTF-8 Plain Text
Duration                                 : 27 min 49 s
Bit rate                                 : 75 b/s
Frame rate                               : 0.283 FPS
Count of elements                        : 473
Stream size                              : 15.3 KiB (0%)
Language                                 : French (FR)
Default                                  : No
Forced                                   : No

Text #17
ID                                       : 19
Format                                   : UTF-8
Codec ID                                 : S_TEXT/UTF8
Codec ID/Info                            : UTF-8 Plain Text
Duration                                 : 28 min 2 s
Bit rate                                 : 110 b/s
Frame rate                               : 0.265 FPS
Count of elements                        : 446
Stream size                              : 22.6 KiB (0%)
Language                                 : Hebrew
Default                                  : No
Forced                                   : No

Text #18
ID                                       : 20
Format                                   : UTF-8
Codec ID                                 : S_TEXT/UTF8
Codec ID/Info                            : UTF-8 Plain Text
Duration                                 : 28 min 2 s
Bit rate                                 : 210 b/s
Frame rate                               : 0.267 FPS
Count of elements                        : 450
Stream size                              : 43.2 KiB (0%)
Language                                 : Hindi
Default                                  : No
Forced                                   : No

Text #19
ID                                       : 21
Format                                   : UTF-8
Codec ID                                 : S_TEXT/UTF8
Codec ID/Info                            : UTF-8 Plain Text
Duration                                 : 28 min 2 s
Bit rate                                 : 76 b/s
Frame rate                               : 0.267 FPS
Count of elements                        : 450
Stream size                              : 15.7 KiB (0%)
Language                                 : Hungarian
Default                                  : No
Forced                                   : No

Text #20
ID                                       : 22
Format                                   : UTF-8
Codec ID                                 : S_TEXT/UTF8
Codec ID/Info                            : UTF-8 Plain Text
Duration                                 : 28 min 2 s
Bit rate                                 : 76 b/s
Frame rate                               : 0.264 FPS
Count of elements                        : 444
Stream size                              : 15.8 KiB (0%)
Language                                 : Indonesian
Default                                  : No
Forced                                   : No

Text #21
ID                                       : 23
Format                                   : UTF-8
Codec ID                                 : S_TEXT/UTF8
Codec ID/Info                            : UTF-8 Plain Text
Duration                                 : 27 min 52 s
Bit rate                                 : 85 b/s
Frame rate                               : 0.258 FPS
Count of elements                        : 432
Stream size                              : 17.4 KiB (0%)
Language                                 : Italian
Default                                  : No
Forced                                   : No

Text #22
ID                                       : 24
Format                                   : UTF-8
Codec ID                                 : S_TEXT/UTF8
Codec ID/Info                            : UTF-8 Plain Text
Duration                                 : 28 min 2 s
Bit rate                                 : 65 b/s
Frame rate                               : 0.250 FPS
Count of elements                        : 421
Stream size                              : 13.4 KiB (0%)
Language                                 : Japanese
Default                                  : No
Forced                                   : No

Text #23
ID                                       : 25
Format                                   : UTF-8
Codec ID                                 : S_TEXT/UTF8
Codec ID/Info                            : UTF-8 Plain Text
Duration                                 : 28 min 2 s
Bit rate                                 : 82 b/s
Frame rate                               : 0.265 FPS
Count of elements                        : 446
Stream size                              : 16.9 KiB (0%)
Language                                 : Korean
Default                                  : No
Forced                                   : No

Text #24
ID                                       : 26
Format                                   : UTF-8
Codec ID                                 : S_TEXT/UTF8
Codec ID/Info                            : UTF-8 Plain Text
Duration                                 : 28 min 2 s
Bit rate                                 : 74 b/s
Frame rate                               : 0.263 FPS
Count of elements                        : 442
Stream size                              : 15.3 KiB (0%)
Language                                 : Lithuanian
Default                                  : No
Forced                                   : No

Text #25
ID                                       : 27
Format                                   : UTF-8
Codec ID                                 : S_TEXT/UTF8
Codec ID/Info                            : UTF-8 Plain Text
Duration                                 : 28 min 2 s
Bit rate                                 : 73 b/s
Frame rate                               : 0.258 FPS
Count of elements                        : 434
Stream size                              : 15.1 KiB (0%)
Language                                 : Latvian
Default                                  : No
Forced                                   : No

Text #26
ID                                       : 28
Format                                   : UTF-8
Codec ID                                 : S_TEXT/UTF8
Codec ID/Info                            : UTF-8 Plain Text
Duration                                 : 28 min 2 s
Bit rate                                 : 78 b/s
Frame rate                               : 0.264 FPS
Count of elements                        : 444
Stream size                              : 16.1 KiB (0%)
Language                                 : Malay
Default                                  : No
Forced                                   : No

Text #27
ID                                       : 29
Format                                   : UTF-8
Codec ID                                 : S_TEXT/UTF8
Codec ID/Info                            : UTF-8 Plain Text
Duration                                 : 28 min 2 s
Bit rate                                 : 72 b/s
Frame rate                               : 0.192 FPS
Count of elements                        : 323
Stream size                              : 14.9 KiB (0%)
Language                                 : Dutch
Default                                  : No
Forced                                   : No

Text #28
ID                                       : 30
Format                                   : UTF-8
Codec ID                                 : S_TEXT/UTF8
Codec ID/Info                            : UTF-8 Plain Text
Duration                                 : 28 min 2 s
Bit rate                                 : 70 b/s
Frame rate                               : 0.211 FPS
Count of elements                        : 355
Stream size                              : 14.5 KiB (0%)
Title                                    : Flemish
Language                                 : Dutch (BE)
Default                                  : No
Forced                                   : No

Text #29
ID                                       : 31
Format                                   : UTF-8
Codec ID                                 : S_TEXT/UTF8
Codec ID/Info                            : UTF-8 Plain Text
Duration                                 : 28 min 2 s
Bit rate                                 : 68 b/s
Frame rate                               : 0.222 FPS
Count of elements                        : 374
Stream size                              : 14.1 KiB (0%)
Language                                 : Norwegian
Default                                  : No
Forced                                   : No

Text #30
ID                                       : 32
Format                                   : UTF-8
Codec ID                                 : S_TEXT/UTF8
Codec ID/Info                            : UTF-8 Plain Text
Duration                                 : 26 min 38 s
Bit rate                                 : 73 b/s
Frame rate                               : 0.248 FPS
Count of elements                        : 397
Stream size                              : 14.4 KiB (0%)
Language                                 : Polish
Default                                  : No
Forced                                   : No

Text #31
ID                                       : 33
Format                                   : UTF-8
Codec ID                                 : S_TEXT/UTF8
Codec ID/Info                            : UTF-8 Plain Text
Duration                                 : 28 min 2 s
Bit rate                                 : 68 b/s
Frame rate                               : 0.254 FPS
Count of elements                        : 427
Stream size                              : 14.2 KiB (0%)
Language                                 : Portuguese
Default                                  : No
Forced                                   : No

Text #32
ID                                       : 34
Format                                   : UTF-8
Codec ID                                 : S_TEXT/UTF8
Codec ID/Info                            : UTF-8 Plain Text
Duration                                 : 28 min 2 s
Bit rate                                 : 67 b/s
Frame rate                               : 0.248 FPS
Count of elements                        : 417
Stream size                              : 13.8 KiB (0%)
Title                                    : Brazilian
Language                                 : Portuguese (BR)
Default                                  : No
Forced                                   : No

Text #33
ID                                       : 35
Format                                   : UTF-8
Codec ID                                 : S_TEXT/UTF8
Codec ID/Info                            : UTF-8 Plain Text
Duration                                 : 28 min 2 s
Bit rate                                 : 115 b/s
Frame rate                               : 0.267 FPS
Count of elements                        : 450
Stream size                              : 23.7 KiB (0%)
Language                                 : Russian
Default                                  : No
Forced                                   : No

Text #34
ID                                       : 36
Format                                   : UTF-8
Codec ID                                 : S_TEXT/UTF8
Codec ID/Info                            : UTF-8 Plain Text
Duration                                 : 28 min 2 s
Bit rate                                 : 69 b/s
Frame rate                               : 0.260 FPS
Count of elements                        : 437
Stream size                              : 14.4 KiB (0%)
Language                                 : Slovak
Default                                  : No
Forced                                   : No

Text #35
ID                                       : 37
Format                                   : UTF-8
Codec ID                                 : S_TEXT/UTF8
Codec ID/Info                            : UTF-8 Plain Text
Duration                                 : 28 min 2 s
Bit rate                                 : 60 b/s
Frame rate                               : 0.218 FPS
Count of elements                        : 367
Stream size                              : 12.4 KiB (0%)
Language                                 : Slovenian
Default                                  : No
Forced                                   : No

Text #36
ID                                       : 38
Format                                   : UTF-8
Codec ID                                 : S_TEXT/UTF8
Codec ID/Info                            : UTF-8 Plain Text
Duration                                 : 26 min 52 s
Bit rate                                 : 76 b/s
Frame rate                               : 0.230 FPS
Count of elements                        : 371
Stream size                              : 15.1 KiB (0%)
Language                                 : Swedish
Default                                  : No
Forced                                   : No

Text #37
ID                                       : 39
Format                                   : UTF-8
Codec ID                                 : S_TEXT/UTF8
Codec ID/Info                            : UTF-8 Plain Text
Duration                                 : 28 min 2 s
Bit rate                                 : 252 b/s
Frame rate                               : 0.267 FPS
Count of elements                        : 449
Stream size                              : 51.9 KiB (0%)
Language                                 : Tamil
Default                                  : No
Forced                                   : No

Text #38
ID                                       : 40
Format                                   : UTF-8
Codec ID                                 : S_TEXT/UTF8
Codec ID/Info                            : UTF-8 Plain Text
Duration                                 : 28 min 2 s
Bit rate                                 : 219 b/s
Frame rate                               : 0.267 FPS
Count of elements                        : 449
Stream size                              : 45.0 KiB (0%)
Language                                 : Telugu
Default                                  : No
Forced                                   : No

Text #39
ID                                       : 41
Format                                   : UTF-8
Codec ID                                 : S_TEXT/UTF8
Codec ID/Info                            : UTF-8 Plain Text
Duration                                 : 28 min 2 s
Bit rate                                 : 183 b/s
Frame rate                               : 0.267 FPS
Count of elements                        : 449
Stream size                              : 37.8 KiB (0%)
Language                                 : Thai
Default                                  : No
Forced                                   : No

Text #40
ID                                       : 42
Format                                   : UTF-8
Codec ID                                 : S_TEXT/UTF8
Codec ID/Info                            : UTF-8 Plain Text
Duration                                 : 28 min 2 s
Bit rate                                 : 73 b/s
Frame rate                               : 0.260 FPS
Count of elements                        : 437
Stream size                              : 15.1 KiB (0%)
Language                                 : Turkish
Default                                  : No
Forced                                   : No

Text #41
ID                                       : 43
Format                                   : UTF-8
Codec ID                                 : S_TEXT/UTF8
Codec ID/Info                            : UTF-8 Plain Text
Duration                                 : 28 min 2 s
Bit rate                                 : 112 b/s
Frame rate                               : 0.267 FPS
Count of elements                        : 449
Stream size                              : 23.1 KiB (0%)
Language                                 : Ukrainian
Default                                  : No
Forced                                   : No

Text #42
ID                                       : 44
Format                                   : UTF-8
Codec ID                                 : S_TEXT/UTF8
Codec ID/Info                            : UTF-8 Plain Text
Duration                                 : 28 min 2 s
Bit rate                                 : 93 b/s
Frame rate                               : 0.267 FPS
Count of elements                        : 450
Stream size                              : 19.3 KiB (0%)
Language                                 : Vietnamese
Default                                  : No
Forced                                   : No

Text #43
ID                                       : 45
Format                                   : UTF-8
Codec ID                                 : S_TEXT/UTF8
Codec ID/Info                            : UTF-8 Plain Text
Duration                                 : 28 min 2 s
Bit rate                                 : 62 b/s
Frame rate                               : 0.267 FPS
Count of elements                        : 450
Stream size                              : 12.8 KiB (0%)
Title                                    : Traditional
Language                                 : Cantonese (Hant)
Default                                  : No
Forced                                   : No

Menu
00:00:00.000                             : en:Studio Logo
00:00:15.963                             : en:Intro
00:01:16.963                             : en:Scene 01
00:27:04.166                             : en:Credits



Download
File Container: MKV
Video/Audio Codec: H264 (HIGH) EAC3
Video Resolution: 1920x1080
Please Login to post a comment.
If you don't have any account, please Register.
  • Subscribe my Feeds
  • Facebook
Encoding Queue:  x264  x265

Latest Episodes

Popular Movies and TV Shows

  • Rebel Moon - Part Two: The Scargiver
  • Sugar
  • Young Sheldon
  • A Gentleman in Moscow
  • Late Night with the Devil
  • Asphalt City
  • Blood for Dust
  • Elsbeth
  • Law & Order: Special Victims Unit
  • Manhunt
  • Ghostbusters: Frozen Empire
  • The Three Musketeers - Part II: Milady
  • The Reader
  • Star Trek: Discovery
  • American Horror Story
  • Family Guy
  • You Were Never Really Here
  • Godzilla x Kong: The New Empire
  • La marge
  • The Good Doctor
  • FBI
  • Star Wars: The Bad Batch
  • Immaculate
  • Dune: Part Two
  • An American Bombing: The Road to April 19th

Recent Comments

  • 23d1:

    ClicknUpload link is missing

  • yopo:

    NitroFlare's link is missing !!!

  • yopo:

    NitroFlare's link is missing !!!

  • yopo:

    NitroFlare's link is missing !!!
    Clicknupload's link is missing !!!

  • yopo:

    NitroFlare's link is missing !!!

  • dragonnightfire: I have tried contacting Rapid Rar to find out what is going on with the server maintainance. I am no...
  • dragonnightfire:

    RR links dead on 5 eps

  • Draveren: hi. can we solve this "server under maintenance" stuff, already? if back in the day i'd ke...
  • Majnon: The links are dead. Please re-upload
  • timt:

    Anyone have the movie "Shoot" (1976) to post?

  • Nightshade: Hey, it appears at least the RMTeam separate episodes and ION's packs for the first two seasons of t...
  • Bigfishguy:

    There's no free option to download this video. Can someone please upload it to clicknupload?

  • timt:

    Junk

  • timt:

    CAM Audio

  • timt:

    Hard Coded SUMS! Russian, I Think.

  • ubirattan:

    Mandem um Fikper, por favor.

  • kellym2: No answer yet for my query - why all the episodes "server under maintenance" on some episo...
  • Majnon:

    Rapidrar links are dead :(

  • Rake:

    Loads of "Server is under maintenance" with RR theese days...

Archives