Sign Up   |   Sign In  
The 100th: Billy Joel at Madison Square Garden - The Greatest Arena Run of All TimeFamily GuyHailey's on It!Unlocked: A Jail ExperimentMoney TalksStill: A Michael J. Fox MovieThe SympathizerDune: Part TwoHundreds of BeaversAbba: How They Won EurovisionI Was Reincarnated as the 7th Prince So I Can Take My Time Perfecting My Magical AbilitySullivan's CrossingTrackerThe Great NorthModel HouseWhen Calls the HeartThe Batman vs. DraculaKurt Cobain: Moments That Shook MusicFalloutBeacon 23The ChannelShogunTrinket BoxThere's Still TomorrowFBI

Announcements

03/31

2024

No

Comments

Fraggle Rock Back to the Rock S02E13 Hope and Socks 720p ATVP WEB-DL DDP5 1 Atmos H 264-FLUX
[RR/NF/CU]
Size: 738MB mkv H264 (HIGH) / EAC3  HD  1280x720

Fraggle Rock: Back to the Rock
File Information
[img]http://lookpic.com/cdn/i2/t/0331202400455964-1.jpg[/img]
[img]http://lookpic.com/cdn/i2/t/0331202400455964-2.jpg[/img]
[img]http://lookpic.com/cdn/i2/t/0331202400455964-3.jpg[/img]

General
Unique ID                                : 287441037488149761485422538474131441924 (0xD83F21507D3582D5FFB2207E059E4904)
Complete name                            : Fraggle Rock Back to the Rock S02E13 Hope and Socks 720p ATVP WEB-DL DDP5 1 Atmos H 264-FLUX.mkv
Format                                   : Matroska
Format version                           : Version 4
File size                                : 738 MiB
Duration                                 : 29 min 15 s
Overall bit rate                         : 3 526 kb/s
Frame rate                               : 23.976 FPS
Writing application                      : mkvmerge v81.0 ('Milliontown') 64-bit
Writing library                          : libebml v1.4.4 + libmatroska v1.7.1

Video
ID                                       : 1
Format                                   : AVC
Format/Info                              : Advanced Video Codec
Format profile                           : [email protected]
Format settings                          : CABAC / 5 Ref Frames
Format settings, CABAC                   : Yes
Format settings, Reference frames        : 5 frames
Codec ID                                 : V_MPEG4/ISO/AVC
Duration                                 : 29 min 15 s
Bit rate                                 : 2 749 kb/s
Width                                    : 1 280 pixels
Height                                   : 720 pixels
Display aspect ratio                     : 16:9
Frame rate mode                          : Constant
Frame rate                               : 23.976 (24000/1001) FPS
Color space                              : YUV
Chroma subsampling                       : 4:2:0
Bit depth                                : 8 bits
Scan type                                : Progressive
Bits/(Pixel*Frame)                       : 0.124
Stream size                              : 575 MiB (78%)
Language                                 : English
Default                                  : Yes
Forced                                   : No
Color range                              : Limited
Color primaries                          : BT.709
Transfer characteristics                 : BT.709
Matrix coefficients                      : BT.709

Audio
ID                                       : 2
Format                                   : E-AC-3 JOC
Format/Info                              : Enhanced AC-3 with Joint Object Coding
Commercial name                          : Dolby Digital Plus with Dolby Atmos
Codec ID                                 : A_EAC3
Duration                                 : 29 min 15 s
Bit rate mode                            : Constant
Bit rate                                 : 768 kb/s
Channel(s)                               : 6 channels
Channel layout                           : L R C LFE Ls Rs
Sampling rate                            : 48.0 kHz
Frame rate                               : 31.250 FPS (1536 SPF)
Compression mode                         : Lossy
Stream size                              : 161 MiB (22%)
Language                                 : English
Service kind                             : Complete Main
Default                                  : Yes
Forced                                   : No
Complexity index                         : 16
Number of dynamic objects                : 15
Bed channel count                        : 1 channel
Bed channel configuration                : LFE

Text #1
ID                                       : 3
Format                                   : UTF-8
Codec ID                                 : S_TEXT/UTF8
Codec ID/Info                            : UTF-8 Plain Text
Duration                                 : 27 min 25 s
Bit rate                                 : 80 b/s
Frame rate                               : 0.277 FPS
Count of elements                        : 456
Stream size                              : 16.1 KiB (0%)
Language                                 : English
Default                                  : No
Forced                                   : No

Text #2
ID                                       : 4
Format                                   : UTF-8
Codec ID                                 : S_TEXT/UTF8
Codec ID/Info                            : UTF-8 Plain Text
Duration                                 : 27 min 41 s
Bit rate                                 : 105 b/s
Frame rate                               : 0.327 FPS
Count of elements                        : 543
Stream size                              : 21.4 KiB (0%)
Title                                    : SDH
Language                                 : English
Default                                  : No
Forced                                   : No

Text #3
ID                                       : 5
Format                                   : UTF-8
Codec ID                                 : S_TEXT/UTF8
Codec ID/Info                            : UTF-8 Plain Text
Duration                                 : 28 min 41 s
Bit rate                                 : 111 b/s
Frame rate                               : 0.264 FPS
Count of elements                        : 455
Stream size                              : 23.5 KiB (0%)
Language                                 : Arabic
Default                                  : No
Forced                                   : No

Text #4
ID                                       : 6
Format                                   : UTF-8
Codec ID                                 : S_TEXT/UTF8
Codec ID/Info                            : UTF-8 Plain Text
Duration                                 : 28 min 41 s
Bit rate                                 : 101 b/s
Frame rate                               : 0.216 FPS
Count of elements                        : 371
Stream size                              : 21.3 KiB (0%)
Language                                 : Bulgarian
Default                                  : No
Forced                                   : No

Text #5
ID                                       : 7
Format                                   : UTF-8
Codec ID                                 : S_TEXT/UTF8
Codec ID/Info                            : UTF-8 Plain Text
Duration                                 : 28 min 41 s
Bit rate                                 : 64 b/s
Frame rate                               : 0.265 FPS
Count of elements                        : 457
Stream size                              : 13.5 KiB (0%)
Title                                    : Simplified
Language                                 : Chinese (Simplified)
Default                                  : No
Forced                                   : No

Text #6
ID                                       : 8
Format                                   : UTF-8
Codec ID                                 : S_TEXT/UTF8
Codec ID/Info                            : UTF-8 Plain Text
Duration                                 : 28 min 41 s
Bit rate                                 : 66 b/s
Frame rate                               : 0.265 FPS
Count of elements                        : 457
Stream size                              : 14.0 KiB (0%)
Title                                    : Traditional
Language                                 : Chinese (Traditional)
Default                                  : No
Forced                                   : No

Text #7
ID                                       : 9
Format                                   : UTF-8
Codec ID                                 : S_TEXT/UTF8
Codec ID/Info                            : UTF-8 Plain Text
Duration                                 : 28 min 41 s
Bit rate                                 : 66 b/s
Frame rate                               : 0.243 FPS
Count of elements                        : 418
Stream size                              : 13.9 KiB (0%)
Language                                 : Czech
Default                                  : No
Forced                                   : No

Text #8
ID                                       : 10
Format                                   : UTF-8
Codec ID                                 : S_TEXT/UTF8
Codec ID/Info                            : UTF-8 Plain Text
Duration                                 : 28 min 40 s
Bit rate                                 : 74 b/s
Frame rate                               : 0.256 FPS
Count of elements                        : 441
Stream size                              : 15.7 KiB (0%)
Language                                 : Danish
Default                                  : No
Forced                                   : No

Text #9
ID                                       : 11
Format                                   : UTF-8
Codec ID                                 : S_TEXT/UTF8
Codec ID/Info                            : UTF-8 Plain Text
Duration                                 : 27 min 31 s
Bit rate                                 : 76 b/s
Frame rate                               : 0.252 FPS
Count of elements                        : 416
Stream size                              : 15.4 KiB (0%)
Language                                 : German
Default                                  : No
Forced                                   : No

Text #10
ID                                       : 12
Format                                   : UTF-8
Codec ID                                 : S_TEXT/UTF8
Codec ID/Info                            : UTF-8 Plain Text
Duration                                 : 28 min 41 s
Bit rate                                 : 115 b/s
Frame rate                               : 0.253 FPS
Count of elements                        : 436
Stream size                              : 24.3 KiB (0%)
Language                                 : Greek
Default                                  : No
Forced                                   : No

Text #11
ID                                       : 13
Format                                   : UTF-8
Codec ID                                 : S_TEXT/UTF8
Codec ID/Info                            : UTF-8 Plain Text
Duration                                 : 28 min 41 s
Bit rate                                 : 74 b/s
Frame rate                               : 0.267 FPS
Count of elements                        : 459
Stream size                              : 15.7 KiB (0%)
Title                                    : Latin American
Language                                 : Spanish (Latin America)
Default                                  : No
Forced                                   : No

Text #12
ID                                       : 14
Format                                   : UTF-8
Codec ID                                 : S_TEXT/UTF8
Codec ID/Info                            : UTF-8 Plain Text
Duration                                 : 28 min 41 s
Bit rate                                 : 74 b/s
Frame rate                               : 0.263 FPS
Count of elements                        : 452
Stream size                              : 15.7 KiB (0%)
Language                                 : Spanish (ES)
Default                                  : No
Forced                                   : No

Text #13
ID                                       : 15
Format                                   : UTF-8
Codec ID                                 : S_TEXT/UTF8
Codec ID/Info                            : UTF-8 Plain Text
Duration                                 : 28 min 41 s
Bit rate                                 : 66 b/s
Frame rate                               : 0.238 FPS
Count of elements                        : 410
Stream size                              : 13.9 KiB (0%)
Language                                 : Estonian
Default                                  : No
Forced                                   : No

Text #14
ID                                       : 16
Format                                   : UTF-8
Codec ID                                 : S_TEXT/UTF8
Codec ID/Info                            : UTF-8 Plain Text
Duration                                 : 28 min 40 s
Bit rate                                 : 67 b/s
Frame rate                               : 0.232 FPS
Count of elements                        : 399
Stream size                              : 14.1 KiB (0%)
Language                                 : Finnish
Default                                  : No
Forced                                   : No

Text #15
ID                                       : 17
Format                                   : UTF-8
Codec ID                                 : S_TEXT/UTF8
Codec ID/Info                            : UTF-8 Plain Text
Duration                                 : 28 min 40 s
Bit rate                                 : 73 b/s
Frame rate                               : 0.275 FPS
Count of elements                        : 474
Stream size                              : 15.5 KiB (0%)
Title                                    : Canadian
Language                                 : French (CA)
Default                                  : No
Forced                                   : No

Text #16
ID                                       : 18
Format                                   : UTF-8
Codec ID                                 : S_TEXT/UTF8
Codec ID/Info                            : UTF-8 Plain Text
Duration                                 : 28 min 40 s
Bit rate                                 : 73 b/s
Frame rate                               : 0.275 FPS
Count of elements                        : 474
Stream size                              : 15.5 KiB (0%)
Language                                 : French (FR)
Default                                  : No
Forced                                   : No

Text #17
ID                                       : 19
Format                                   : UTF-8
Codec ID                                 : S_TEXT/UTF8
Codec ID/Info                            : UTF-8 Plain Text
Duration                                 : 28 min 41 s
Bit rate                                 : 106 b/s
Frame rate                               : 0.265 FPS
Count of elements                        : 457
Stream size                              : 22.4 KiB (0%)
Language                                 : Hebrew
Default                                  : No
Forced                                   : No

Text #18
ID                                       : 20
Format                                   : UTF-8
Codec ID                                 : S_TEXT/UTF8
Codec ID/Info                            : UTF-8 Plain Text
Duration                                 : 28 min 41 s
Bit rate                                 : 193 b/s
Frame rate                               : 0.266 FPS
Count of elements                        : 458
Stream size                              : 40.7 KiB (0%)
Language                                 : Hindi
Default                                  : No
Forced                                   : No

Text #19
ID                                       : 21
Format                                   : UTF-8
Codec ID                                 : S_TEXT/UTF8
Codec ID/Info                            : UTF-8 Plain Text
Duration                                 : 28 min 41 s
Bit rate                                 : 76 b/s
Frame rate                               : 0.266 FPS
Count of elements                        : 458
Stream size                              : 16.1 KiB (0%)
Language                                 : Hungarian
Default                                  : No
Forced                                   : No

Text #20
ID                                       : 22
Format                                   : UTF-8
Codec ID                                 : S_TEXT/UTF8
Codec ID/Info                            : UTF-8 Plain Text
Duration                                 : 28 min 41 s
Bit rate                                 : 79 b/s
Frame rate                               : 0.265 FPS
Count of elements                        : 456
Stream size                              : 16.8 KiB (0%)
Language                                 : Indonesian
Default                                  : No
Forced                                   : No

Text #21
ID                                       : 23
Format                                   : UTF-8
Codec ID                                 : S_TEXT/UTF8
Codec ID/Info                            : UTF-8 Plain Text
Duration                                 : 28 min 32 s
Bit rate                                 : 80 b/s
Frame rate                               : 0.261 FPS
Count of elements                        : 447
Stream size                              : 16.7 KiB (0%)
Language                                 : Italian
Default                                  : No
Forced                                   : No

Text #22
ID                                       : 24
Format                                   : UTF-8
Codec ID                                 : S_TEXT/UTF8
Codec ID/Info                            : UTF-8 Plain Text
Duration                                 : 28 min 40 s
Bit rate                                 : 60 b/s
Frame rate                               : 0.257 FPS
Count of elements                        : 443
Stream size                              : 12.7 KiB (0%)
Language                                 : Japanese
Default                                  : No
Forced                                   : No

Text #23
ID                                       : 25
Format                                   : UTF-8
Codec ID                                 : S_TEXT/UTF8
Codec ID/Info                            : UTF-8 Plain Text
Duration                                 : 28 min 41 s
Bit rate                                 : 79 b/s
Frame rate                               : 0.265 FPS
Count of elements                        : 456
Stream size                              : 16.7 KiB (0%)
Language                                 : Korean
Default                                  : No
Forced                                   : No

Text #24
ID                                       : 26
Format                                   : UTF-8
Codec ID                                 : S_TEXT/UTF8
Codec ID/Info                            : UTF-8 Plain Text
Duration                                 : 28 min 41 s
Bit rate                                 : 72 b/s
Frame rate                               : 0.265 FPS
Count of elements                        : 456
Stream size                              : 15.2 KiB (0%)
Language                                 : Lithuanian
Default                                  : No
Forced                                   : No

Text #25
ID                                       : 27
Format                                   : UTF-8
Codec ID                                 : S_TEXT/UTF8
Codec ID/Info                            : UTF-8 Plain Text
Duration                                 : 28 min 41 s
Bit rate                                 : 73 b/s
Frame rate                               : 0.263 FPS
Count of elements                        : 453
Stream size                              : 15.3 KiB (0%)
Language                                 : Latvian
Default                                  : No
Forced                                   : No

Text #26
ID                                       : 28
Format                                   : UTF-8
Codec ID                                 : S_TEXT/UTF8
Codec ID/Info                            : UTF-8 Plain Text
Duration                                 : 28 min 41 s
Bit rate                                 : 76 b/s
Frame rate                               : 0.264 FPS
Count of elements                        : 455
Stream size                              : 16.1 KiB (0%)
Language                                 : Malay
Default                                  : No
Forced                                   : No

Text #27
ID                                       : 29
Format                                   : UTF-8
Codec ID                                 : S_TEXT/UTF8
Codec ID/Info                            : UTF-8 Plain Text
Duration                                 : 28 min 41 s
Bit rate                                 : 67 b/s
Frame rate                               : 0.189 FPS
Count of elements                        : 326
Stream size                              : 14.2 KiB (0%)
Language                                 : Dutch
Default                                  : No
Forced                                   : No

Text #28
ID                                       : 30
Format                                   : UTF-8
Codec ID                                 : S_TEXT/UTF8
Codec ID/Info                            : UTF-8 Plain Text
Duration                                 : 28 min 41 s
Bit rate                                 : 64 b/s
Frame rate                               : 0.214 FPS
Count of elements                        : 368
Stream size                              : 13.5 KiB (0%)
Title                                    : Flemish
Language                                 : Dutch (BE)
Default                                  : No
Forced                                   : No

Text #29
ID                                       : 31
Format                                   : UTF-8
Codec ID                                 : S_TEXT/UTF8
Codec ID/Info                            : UTF-8 Plain Text
Duration                                 : 28 min 41 s
Bit rate                                 : 69 b/s
Frame rate                               : 0.222 FPS
Count of elements                        : 383
Stream size                              : 14.5 KiB (0%)
Language                                 : Norwegian
Default                                  : No
Forced                                   : No

Text #30
ID                                       : 32
Format                                   : UTF-8
Codec ID                                 : S_TEXT/UTF8
Codec ID/Info                            : UTF-8 Plain Text
Duration                                 : 27 min 25 s
Bit rate                                 : 69 b/s
Frame rate                               : 0.243 FPS
Count of elements                        : 399
Stream size                              : 13.9 KiB (0%)
Language                                 : Polish
Default                                  : No
Forced                                   : No

Text #31
ID                                       : 33
Format                                   : UTF-8
Codec ID                                 : S_TEXT/UTF8
Codec ID/Info                            : UTF-8 Plain Text
Duration                                 : 28 min 41 s
Bit rate                                 : 67 b/s
Frame rate                               : 0.261 FPS
Count of elements                        : 450
Stream size                              : 14.2 KiB (0%)
Language                                 : Portuguese
Default                                  : No
Forced                                   : No

Text #32
ID                                       : 34
Format                                   : UTF-8
Codec ID                                 : S_TEXT/UTF8
Codec ID/Info                            : UTF-8 Plain Text
Duration                                 : 28 min 41 s
Bit rate                                 : 67 b/s
Frame rate                               : 0.253 FPS
Count of elements                        : 435
Stream size                              : 14.2 KiB (0%)
Title                                    : Brazilian
Language                                 : Portuguese (BR)
Default                                  : No
Forced                                   : No

Text #33
ID                                       : 35
Format                                   : UTF-8
Codec ID                                 : S_TEXT/UTF8
Codec ID/Info                            : UTF-8 Plain Text
Duration                                 : 28 min 41 s
Bit rate                                 : 111 b/s
Frame rate                               : 0.266 FPS
Count of elements                        : 458
Stream size                              : 23.5 KiB (0%)
Language                                 : Russian
Default                                  : No
Forced                                   : No

Text #34
ID                                       : 36
Format                                   : UTF-8
Codec ID                                 : S_TEXT/UTF8
Codec ID/Info                            : UTF-8 Plain Text
Duration                                 : 28 min 41 s
Bit rate                                 : 69 b/s
Frame rate                               : 0.263 FPS
Count of elements                        : 453
Stream size                              : 14.6 KiB (0%)
Language                                 : Slovak
Default                                  : No
Forced                                   : No

Text #35
ID                                       : 37
Format                                   : UTF-8
Codec ID                                 : S_TEXT/UTF8
Codec ID/Info                            : UTF-8 Plain Text
Duration                                 : 28 min 41 s
Bit rate                                 : 60 b/s
Frame rate                               : 0.238 FPS
Count of elements                        : 409
Stream size                              : 12.7 KiB (0%)
Language                                 : Slovenian
Default                                  : No
Forced                                   : No

Text #36
ID                                       : 38
Format                                   : UTF-8
Codec ID                                 : S_TEXT/UTF8
Codec ID/Info                            : UTF-8 Plain Text
Duration                                 : 28 min 40 s
Bit rate                                 : 69 b/s
Frame rate                               : 0.231 FPS
Count of elements                        : 397
Stream size                              : 14.6 KiB (0%)
Language                                 : Swedish
Default                                  : No
Forced                                   : No

Text #37
ID                                       : 39
Format                                   : UTF-8
Codec ID                                 : S_TEXT/UTF8
Codec ID/Info                            : UTF-8 Plain Text
Duration                                 : 28 min 41 s
Bit rate                                 : 237 b/s
Frame rate                               : 0.265 FPS
Count of elements                        : 457
Stream size                              : 49.8 KiB (0%)
Language                                 : Tamil
Default                                  : No
Forced                                   : No

Text #38
ID                                       : 40
Format                                   : UTF-8
Codec ID                                 : S_TEXT/UTF8
Codec ID/Info                            : UTF-8 Plain Text
Duration                                 : 28 min 41 s
Bit rate                                 : 214 b/s
Frame rate                               : 0.265 FPS
Count of elements                        : 457
Stream size                              : 45.1 KiB (0%)
Language                                 : Telugu
Default                                  : No
Forced                                   : No

Text #39
ID                                       : 41
Format                                   : UTF-8
Codec ID                                 : S_TEXT/UTF8
Codec ID/Info                            : UTF-8 Plain Text
Duration                                 : 28 min 41 s
Bit rate                                 : 177 b/s
Frame rate                               : 0.265 FPS
Count of elements                        : 457
Stream size                              : 37.3 KiB (0%)
Language                                 : Thai
Default                                  : No
Forced                                   : No

Text #40
ID                                       : 42
Format                                   : UTF-8
Codec ID                                 : S_TEXT/UTF8
Codec ID/Info                            : UTF-8 Plain Text
Duration                                 : 28 min 41 s
Bit rate                                 : 74 b/s
Frame rate                               : 0.264 FPS
Count of elements                        : 454
Stream size                              : 15.6 KiB (0%)
Language                                 : Turkish
Default                                  : No
Forced                                   : No

Text #41
ID                                       : 43
Format                                   : UTF-8
Codec ID                                 : S_TEXT/UTF8
Codec ID/Info                            : UTF-8 Plain Text
Duration                                 : 28 min 41 s
Bit rate                                 : 109 b/s
Frame rate                               : 0.265 FPS
Count of elements                        : 457
Stream size                              : 23.0 KiB (0%)
Language                                 : Ukrainian
Default                                  : No
Forced                                   : No

Text #42
ID                                       : 44
Format                                   : UTF-8
Codec ID                                 : S_TEXT/UTF8
Codec ID/Info                            : UTF-8 Plain Text
Duration                                 : 28 min 41 s
Bit rate                                 : 91 b/s
Frame rate                               : 0.265 FPS
Count of elements                        : 457
Stream size                              : 19.3 KiB (0%)
Language                                 : Vietnamese
Default                                  : No
Forced                                   : No

Text #43
ID                                       : 45
Format                                   : UTF-8
Codec ID                                 : S_TEXT/UTF8
Codec ID/Info                            : UTF-8 Plain Text
Duration                                 : 28 min 41 s
Bit rate                                 : 60 b/s
Frame rate                               : 0.265 FPS
Count of elements                        : 456
Stream size                              : 12.8 KiB (0%)
Title                                    : Traditional
Language                                 : Cantonese (Hant)
Default                                  : No
Forced                                   : No

Menu
00:00:00.000                             : en:Studio Logo
00:00:15.963                             : en:Intro
00:01:16.963                             : en:Scene 01
00:27:43.083                             : en:Credits



Download
File Container: MKV
Video/Audio Codec: H264 (HIGH) EAC3
Video Resolution: 1280x720
Please Login to post a comment.
If you don't have any account, please Register.
  • Subscribe my Feeds
  • Facebook
Encoding Queue:  x264  x265

Latest Episodes

Popular Movies and TV Shows

  • The 100th: Billy Joel at Madison Square Garden - The Greatest Arena Run of All Time
  • Family Guy
  • Hailey's on It!
  • Unlocked: A Jail Experiment
  • Money Talks
  • Still: A Michael J. Fox Movie
  • The Sympathizer
  • Dune: Part Two
  • Hundreds of Beavers
  • Abba: How They Won Eurovision
  • I Was Reincarnated as the 7th Prince So I Can Take My Time Perfecting My Magical Ability
  • Sullivan's Crossing
  • Tracker
  • The Great North
  • Model House
  • When Calls the Heart
  • The Batman vs. Dracula
  • Kurt Cobain: Moments That Shook Music
  • Fallout
  • Beacon 23
  • The Channel
  • Shogun
  • Trinket Box
  • There's Still Tomorrow
  • FBI

Recent Comments

  • Bud:

    Are you ever going to put up Thursday's episode with Liev Schreiber?

  • alp-engin:

    When will that maintenance be over? Please...

  • mentalityx:

    Rad bloke

  • DownloadHostInspector:

    so far these RMTeam uploads always have a working link. DownloadHostInspector approved!

  • DownloadHostInspector:

    ah yes, this upload has a host that works. clicknupload. DownloadHostInspector approved!

  • DownloadHostInspector: Why are all the download hosts trash? none of them let you download it
  • Qua4ratic:

    clicknupload link plz

  • ppoo:

    Please, can you add "Real Time with Bill Maher S22E11" ??

  • theahtisham:

    Kindly upload Ep. 3 and 4 as well.

Archives