Sign Up   |   Sign In  
Family GuyThe 100th: Billy Joel at Madison Square Garden - The Greatest Arena Run of All TimeHundreds of BeaversI Was Reincarnated as the 7th Prince So I Can Take My Time Perfecting My Magical AbilityÔkami to kôshinryô: merchant meets the wise wolfStill: A Michael J. Fox MovieThe SympathizerTrackerDune: Part TwoModel HouseAbba: How They Won EurovisionThe Great NorthWhen Calls the HeartSullivan's CrossingBeacon 23The Batman vs. DraculaKurt Cobain: Moments That Shook MusicThe ChannelFalloutShogunS.W.A.T.Trinket BoxThere's Still TomorrowTo Die ForFBI

Announcements

03/31

2024

No

Comments

Goosebumps 2023 S01E01 Say Cheese and Die 1080p DSNP WEB-DL DDP5 1 Atmos H 264-FLUX
[RR/NF]
Size: 2.2GB mkv H264 (HIGH) / EAC3  HD  1920x1080

Goosebumps
File Information
[img]http://lookpic.com/cdn/i2/t/0331202421135885-1.jpg[/img]
[img]http://lookpic.com/cdn/i2/t/0331202421135885-2.jpg[/img]
[img]http://lookpic.com/cdn/i2/t/0331202421135885-3.jpg[/img]

General
Unique ID                                : 301607495093579813469122600994617682430 (0xE2E77D999D8BA39CD1D02385549FE9FE)
Complete name                            : Goosebumps 2023 S01E01 Say Cheese and Die 1080p DSNP WEB-DL DDP5 1 Atmos H 264-FLUX.mkv
Format                                   : Matroska
Format version                           : Version 4
File size                                : 2.25 GiB
Duration                                 : 47 min 21 s
Overall bit rate mode                    : Variable
Overall bit rate                         : 6 790 kb/s
Frame rate                               : 23.976 FPS
Writing application                      : mkvmerge v79.0 ('Funeral Pyres') 64-bit
Writing library                          : libebml v1.4.4 + libmatroska v1.7.1

Video
ID                                       : 1
Format                                   : AVC
Format/Info                              : Advanced Video Codec
Format profile                           : High@L4
Format settings                          : CABAC / 4 Ref Frames
Format settings, CABAC                   : Yes
Format settings, Reference frames        : 4 frames
Codec ID                                 : V_MPEG4/ISO/AVC
Duration                                 : 47 min 21 s
Bit rate mode                            : Variable
Bit rate                                 : 6 017 kb/s
Maximum bit rate                         : 12.7 Mb/s
Width                                    : 1 920 pixels
Height                                   : 1 080 pixels
Display aspect ratio                     : 16:9
Frame rate mode                          : Constant
Frame rate                               : 23.976 (24000/1001) FPS
Color space                              : YUV
Chroma subsampling                       : 4:2:0
Bit depth                                : 8 bits
Scan type                                : Progressive
Bits/(Pixel*Frame)                       : 0.121
Time code of first frame                 : 00:00:00:0000000000
Stream size                              : 1.99 GiB (89%)
Language                                 : English
Default                                  : Yes
Forced                                   : No
Color range                              : Limited
Color primaries                          : BT.709
Transfer characteristics                 : BT.709
Matrix coefficients                      : BT.709

Audio
ID                                       : 2
Format                                   : E-AC-3 JOC
Format/Info                              : Enhanced AC-3 with Joint Object Coding
Commercial name                          : Dolby Digital Plus with Dolby Atmos
Codec ID                                 : A_EAC3
Duration                                 : 47 min 21 s
Bit rate mode                            : Constant
Bit rate                                 : 768 kb/s
Channel(s)                               : 6 channels
Channel layout                           : L R C LFE Ls Rs
Sampling rate                            : 48.0 kHz
Frame rate                               : 31.250 FPS (1536 SPF)
Compression mode                         : Lossy
Stream size                              : 260 MiB (11%)
Language                                 : English
Service kind                             : Complete Main
Default                                  : Yes
Forced                                   : No
Complexity index                         : 16
Number of dynamic objects                : 15
Bed channel count                        : 1 channel
Bed channel configuration                : LFE

Text #1
ID                                       : 3
Format                                   : UTF-8
Codec ID                                 : S_TEXT/UTF8
Codec ID/Info                            : UTF-8 Plain Text
Duration                                 : 46 min 53 s
Bit rate                                 : 76 b/s
Frame rate                               : 0.305 FPS
Count of elements                        : 857
Stream size                              : 26.2 KiB (0%)
Language                                 : English
Default                                  : No
Forced                                   : No

Text #2
ID                                       : 4
Format                                   : UTF-8
Codec ID                                 : S_TEXT/UTF8
Codec ID/Info                            : UTF-8 Plain Text
Duration                                 : 47 min 7 s
Bit rate                                 : 90 b/s
Frame rate                               : 0.355 FPS
Count of elements                        : 1004
Stream size                              : 31.1 KiB (0%)
Title                                    : SDH
Language                                 : English
Default                                  : No
Forced                                   : No

Text #3
ID                                       : 5
Format                                   : UTF-8
Codec ID                                 : S_TEXT/UTF8
Codec ID/Info                            : UTF-8 Plain Text
Duration                                 : 45 min 31 s
Bit rate                                 : 55 b/s
Frame rate                               : 0.282 FPS
Count of elements                        : 771
Stream size                              : 18.4 KiB (0%)
Language                                 : Czech
Default                                  : No
Forced                                   : No

Text #4
ID                                       : 6
Format                                   : UTF-8
Codec ID                                 : S_TEXT/UTF8
Codec ID/Info                            : UTF-8 Plain Text
Duration                                 : 46 min 59 s
Bit rate                                 : 63 b/s
Frame rate                               : 0.274 FPS
Count of elements                        : 774
Stream size                              : 21.8 KiB (0%)
Language                                 : Danish
Default                                  : No
Forced                                   : No

Text #5
ID                                       : 7
Format                                   : UTF-8
Codec ID                                 : S_TEXT/UTF8
Codec ID/Info                            : UTF-8 Plain Text
Duration                                 : 45 min 39 s
Bit rate                                 : 60 b/s
Frame rate                               : 0.281 FPS
Count of elements                        : 770
Stream size                              : 20.3 KiB (0%)
Language                                 : German
Default                                  : No
Forced                                   : No

Text #6
ID                                       : 8
Format                                   : UTF-8
Codec ID                                 : S_TEXT/UTF8
Codec ID/Info                            : UTF-8 Plain Text
Duration                                 : 45 min 39 s
Bit rate                                 : 108 b/s
Frame rate                               : 0.282 FPS
Count of elements                        : 773
Stream size                              : 36.2 KiB (0%)
Language                                 : Greek
Default                                  : No
Forced                                   : No

Text #7
ID                                       : 9
Format                                   : UTF-8
Codec ID                                 : S_TEXT/UTF8
Codec ID/Info                            : UTF-8 Plain Text
Duration                                 : 45 min 39 s
Bit rate                                 : 58 b/s
Frame rate                               : 0.273 FPS
Count of elements                        : 749
Stream size                              : 19.4 KiB (0%)
Title                                    : Latin American
Language                                 : Spanish (Latin America)
Default                                  : No
Forced                                   : No

Text #8
ID                                       : 10
Format                                   : UTF-8
Codec ID                                 : S_TEXT/UTF8
Codec ID/Info                            : UTF-8 Plain Text
Duration                                 : 45 min 39 s
Bit rate                                 : 61 b/s
Frame rate                               : 0.282 FPS
Count of elements                        : 773
Stream size                              : 20.7 KiB (0%)
Language                                 : Spanish (ES)
Default                                  : No
Forced                                   : No

Text #9
ID                                       : 11
Format                                   : UTF-8
Codec ID                                 : S_TEXT/UTF8
Codec ID/Info                            : UTF-8 Plain Text
Duration                                 : 45 min 43 s
Bit rate                                 : 60 b/s
Frame rate                               : 0.282 FPS
Count of elements                        : 773
Stream size                              : 20.1 KiB (0%)
Language                                 : Finnish
Default                                  : No
Forced                                   : No

Text #10
ID                                       : 12
Format                                   : UTF-8
Codec ID                                 : S_TEXT/UTF8
Codec ID/Info                            : UTF-8 Plain Text
Duration                                 : 45 min 43 s
Bit rate                                 : 56 b/s
Frame rate                               : 0.274 FPS
Count of elements                        : 752
Stream size                              : 19.0 KiB (0%)
Language                                 : French (FR)
Default                                  : No
Forced                                   : No

Text #11
ID                                       : 13
Format                                   : UTF-8
Codec ID                                 : S_TEXT/UTF8
Codec ID/Info                            : UTF-8 Plain Text
Duration                                 : 45 min 39 s
Bit rate                                 : 59 b/s
Frame rate                               : 0.269 FPS
Count of elements                        : 737
Stream size                              : 19.8 KiB (0%)
Language                                 : Hungarian
Default                                  : No
Forced                                   : No

Text #12
ID                                       : 14
Format                                   : UTF-8
Codec ID                                 : S_TEXT/UTF8
Codec ID/Info                            : UTF-8 Plain Text
Duration                                 : 45 min 39 s
Bit rate                                 : 65 b/s
Frame rate                               : 0.283 FPS
Count of elements                        : 775
Stream size                              : 22.0 KiB (0%)
Language                                 : Italian
Default                                  : No
Forced                                   : No

Text #13
ID                                       : 15
Format                                   : UTF-8
Codec ID                                 : S_TEXT/UTF8
Codec ID/Info                            : UTF-8 Plain Text
Duration                                 : 46 min 59 s
Bit rate                                 : 55 b/s
Frame rate                               : 0.308 FPS
Count of elements                        : 869
Stream size                              : 19.0 KiB (0%)
Language                                 : Japanese
Default                                  : No
Forced                                   : No

Text #14
ID                                       : 16
Format                                   : UTF-8
Codec ID                                 : S_TEXT/UTF8
Codec ID/Info                            : UTF-8 Plain Text
Duration                                 : 45 min 39 s
Bit rate                                 : 76 b/s
Frame rate                               : 0.284 FPS
Count of elements                        : 779
Stream size                              : 25.5 KiB (0%)
Language                                 : Korean
Default                                  : No
Forced                                   : No

Text #15
ID                                       : 17
Format                                   : UTF-8
Codec ID                                 : S_TEXT/UTF8
Codec ID/Info                            : UTF-8 Plain Text
Duration                                 : 45 min 39 s
Bit rate                                 : 60 b/s
Frame rate                               : 0.278 FPS
Count of elements                        : 762
Stream size                              : 20.1 KiB (0%)
Language                                 : Dutch
Default                                  : No
Forced                                   : No

Text #16
ID                                       : 18
Format                                   : UTF-8
Codec ID                                 : S_TEXT/UTF8
Codec ID/Info                            : UTF-8 Plain Text
Duration                                 : 45 min 39 s
Bit rate                                 : 58 b/s
Frame rate                               : 0.282 FPS
Count of elements                        : 772
Stream size                              : 19.6 KiB (0%)
Language                                 : Norwegian
Default                                  : No
Forced                                   : No

Text #17
ID                                       : 19
Format                                   : UTF-8
Codec ID                                 : S_TEXT/UTF8
Codec ID/Info                            : UTF-8 Plain Text
Duration                                 : 45 min 39 s
Bit rate                                 : 53 b/s
Frame rate                               : 0.281 FPS
Count of elements                        : 771
Stream size                              : 17.7 KiB (0%)
Language                                 : Polish
Default                                  : No
Forced                                   : No

Text #18
ID                                       : 20
Format                                   : UTF-8
Codec ID                                 : S_TEXT/UTF8
Codec ID/Info                            : UTF-8 Plain Text
Duration                                 : 45 min 39 s
Bit rate                                 : 65 b/s
Frame rate                               : 0.282 FPS
Count of elements                        : 773
Stream size                              : 21.9 KiB (0%)
Title                                    : Brazilian
Language                                 : Portuguese (BR)
Default                                  : No
Forced                                   : No

Text #19
ID                                       : 21
Format                                   : UTF-8
Codec ID                                 : S_TEXT/UTF8
Codec ID/Info                            : UTF-8 Plain Text
Duration                                 : 45 min 43 s
Bit rate                                 : 58 b/s
Frame rate                               : 0.281 FPS
Count of elements                        : 772
Stream size                              : 19.7 KiB (0%)
Language                                 : Portuguese (PT)
Default                                  : No
Forced                                   : No

Text #20
ID                                       : 22
Format                                   : UTF-8
Codec ID                                 : S_TEXT/UTF8
Codec ID/Info                            : UTF-8 Plain Text
Duration                                 : 45 min 39 s
Bit rate                                 : 62 b/s
Frame rate                               : 0.283 FPS
Count of elements                        : 776
Stream size                              : 21.0 KiB (0%)
Language                                 : Romanian
Default                                  : No
Forced                                   : No

Text #21
ID                                       : 23
Format                                   : UTF-8
Codec ID                                 : S_TEXT/UTF8
Codec ID/Info                            : UTF-8 Plain Text
Duration                                 : 45 min 39 s
Bit rate                                 : 67 b/s
Frame rate                               : 0.283 FPS
Count of elements                        : 776
Stream size                              : 22.7 KiB (0%)
Language                                 : Slovak
Default                                  : No
Forced                                   : No

Text #22
ID                                       : 24
Format                                   : UTF-8
Codec ID                                 : S_TEXT/UTF8
Codec ID/Info                            : UTF-8 Plain Text
Duration                                 : 45 min 39 s
Bit rate                                 : 66 b/s
Frame rate                               : 0.283 FPS
Count of elements                        : 775
Stream size                              : 22.3 KiB (0%)
Language                                 : Swedish
Default                                  : No
Forced                                   : No

Text #23
ID                                       : 25
Format                                   : UTF-8
Codec ID                                 : S_TEXT/UTF8
Codec ID/Info                            : UTF-8 Plain Text
Duration                                 : 44 min 23 s
Bit rate                                 : 66 b/s
Frame rate                               : 0.289 FPS
Count of elements                        : 770
Stream size                              : 21.6 KiB (0%)
Language                                 : Turkish
Default                                  : No
Forced                                   : No

Text #24
ID                                       : 26
Format                                   : UTF-8
Codec ID                                 : S_TEXT/UTF8
Codec ID/Info                            : UTF-8 Plain Text
Duration                                 : 45 min 39 s
Bit rate                                 : 58 b/s
Frame rate                               : 0.284 FPS
Count of elements                        : 777
Stream size                              : 19.5 KiB (0%)
Title                                    : Traditional
Language                                 : Chinese (Traditional)
Default                                  : No
Forced                                   : No

Menu
00:03:55.110                             : en:Intro
00:04:17.466                             : en:Scene 1
00:45:50.250                             : en:Credits



Download
File Container: MKV
Video/Audio Codec: H264 (HIGH) EAC3
Video Resolution: 1920x1080
Please Login to post a comment.
If you don't have any account, please Register.
  • Subscribe my Feeds
  • Facebook
Encoding Queue:  x264  x265

Latest Episodes

Popular Movies and TV Shows

  • Family Guy
  • The 100th: Billy Joel at Madison Square Garden - The Greatest Arena Run of All Time
  • Hundreds of Beavers
  • I Was Reincarnated as the 7th Prince So I Can Take My Time Perfecting My Magical Ability
  • Ôkami to kôshinryô: merchant meets the wise wolf
  • Still: A Michael J. Fox Movie
  • The Sympathizer
  • Tracker
  • Dune: Part Two
  • Model House
  • Abba: How They Won Eurovision
  • The Great North
  • When Calls the Heart
  • Sullivan's Crossing
  • Beacon 23
  • The Batman vs. Dracula
  • Kurt Cobain: Moments That Shook Music
  • The Channel
  • Fallout
  • Shogun
  • S.W.A.T.
  • Trinket Box
  • There's Still Tomorrow
  • To Die For
  • FBI

Recent Comments

  • Bud:

    Are you ever going to put up Thursday's episode with Liev Schreiber?

  • alp-engin:

    When will that maintenance be over? Please...

  • mentalityx:

    Rad bloke

  • DownloadHostInspector:

    so far these RMTeam uploads always have a working link. DownloadHostInspector approved!

  • DownloadHostInspector:

    ah yes, this upload has a host that works. clicknupload. DownloadHostInspector approved!

  • DownloadHostInspector: Why are all the download hosts trash? none of them let you download it
  • Qua4ratic:

    clicknupload link plz

  • ppoo:

    Please, can you add "Real Time with Bill Maher S22E11" ??

  • theahtisham:

    Kindly upload Ep. 3 and 4 as well.

Archives