Sign Up   |   Sign In  
I Saw the TV GlowCamp SnoopyUltraman: RisingPawn Stars Do AmericaExhumaInterrogation RawThe Bold and the BeautifulHannah Einbinder: Everything Must GoMILF of NorwaySistas#DUPE#Plot 35WWE NXTThe BoysWalkerBratsNotas sobre un veranoMower MinionsEvilBridgertonWWE RawLamp LifeFentasyThe Artifice GirlThe Daily Show

Announcements

03/31

2024

1

Comments

Halt and Catch Fire S02E08 1080p AMZN WEB-DL DDP 5 1 H 264-NTb
[RR/NF]
Size: 3.9GB mkv H264 (HIGH) / EAC3  HD  1920x1080

Halt and Catch Fire
File Information
[img]http://lookpic.com/cdn/i2/t/0331202408511010-1.jpg[/img]
[img]http://lookpic.com/cdn/i2/t/0331202408511010-2.jpg[/img]
[img]http://lookpic.com/cdn/i2/t/0331202408511010-3.jpg[/img]

General
Unique ID                                : 237809651775713880533135949395233892467 (0xB2E87912B8A936959295AACC7C8C6873)
Complete name                            : Halt and Catch Fire S02E08 1080p AMZN WEB-DL DDP 5 1 H 264-NTb.mkv
Format                                   : Matroska
Format version                           : Version 4
File size                                : 3.92 GiB
Duration                                 : 42 min 20 s
Overall bit rate mode                    : Variable
Overall bit rate                         : 13.2 Mb/s
Frame rate                               : 23.976 FPS
Encoded date                             : 2016-08-16 02:17:45 UTC
Writing application                      : mkvmerge v9.3.1 ('Mask Machine') 64bit
Writing library                          : libebml v1.3.4 + libmatroska v1.4.5

Video
ID                                       : 1
Format                                   : AVC
Format/Info                              : Advanced Video Codec
Format profile                           : High@L4
Format settings                          : CABAC / 4 Ref Frames
Format settings, CABAC                   : Yes
Format settings, Reference frames        : 4 frames
Codec ID                                 : V_MPEG4/ISO/AVC
Duration                                 : 42 min 20 s
Bit rate mode                            : Variable
Bit rate                                 : 12.3 Mb/s
Maximum bit rate                         : 15.0 Mb/s
Width                                    : 1 920 pixels
Height                                   : 1 080 pixels
Display aspect ratio                     : 16:9
Active Format Description                : Full frame 16:9 image
Frame rate mode                          : Constant
Frame rate                               : 23.976 (24000/1001) FPS
Color space                              : YUV
Chroma subsampling                       : 4:2:0
Bit depth                                : 8 bits
Scan type                                : Progressive
Bits/(Pixel*Frame)                       : 0.248
Stream size                              : 3.65 GiB (93%)
Writing library                          : x264 core 148 r2623 d5b2374
 Encoding settings                        : cabac=1 / ref=4 / deblock=1:-1:-1 / analyse=0x3:0x133 / me=umh / subme=9 / psy=1 / psy_rd=1.00:0.15 / mixed_ref=1 / me_range=24 / chroma_me=1 / trellis=2 / 8x8dct=1 / cqm=0 / deadz / fast pskip=1 / chroma_qp_offset=-3 / threads=34 / lookahead_threads=5 / sliced_threads=0 / nr=150 / decimate=1 / interlaced=0 / bluray_compat=0 / c / bframes=8 / b_pyramid=2 / b_adapt=2 / b_bias=0 / direct=3 / weightb=1 / open_gop=0 / weightp=2 / keyint=120 / keyint_min=61 / scenecut=0 / intra_refresh=0 / rc_lookahead=120 / rc=crf / mbtree=1 / crf=18.0 / qcomp=0.60 / qpmin=0 / qpmax=69 / qpstep=4 / vbv_maxrate=15000 / vbv_bufsize=31250 / crf_max=0.0 / nal_hrd=vbr / filler=0 / ip_ratio=1.40 / aq=3:1.00
Default                                  : Yes
Forced                                   : No
Color range                              : Limited
Color primaries                          : BT.709
Transfer characteristics                 : BT.709
Matrix coefficients                      : BT.709

Audio
ID                                       : 2
Format                                   : E-AC-3
Format/Info                              : Enhanced AC-3
Commercial name                          : Dolby Digital Plus
Codec ID                                 : A_EAC3
Duration                                 : 42 min 20 s
Bit rate mode                            : Constant
Bit rate                                 : 640 kb/s
Channel(s)                               : 6 channels
Channel layout                           : L R C LFE Ls Rs
Sampling rate                            : 48.0 kHz
Frame rate                               : 31.250 FPS (1536 SPF)
Compression mode                         : Lossy
Stream size                              : 194 MiB (5%)
Language                                 : English
Service kind                             : Complete Main
Default                                  : Yes
Forced                                   : No

Text
ID                                       : 3
Format                                   : UTF-8
Codec ID                                 : S_TEXT/UTF8
Codec ID/Info                            : UTF-8 Plain Text
Language                                 : English
Default                                  : No
Forced                                   : No



Download
File Container: MKV
Video/Audio Codec: H264 (HIGH) EAC3
Video Resolution: 1920x1080

1 Response to "[RR/NF] Halt and Catch Fire S02E08 1080p AMZN WEB-DL DDP 5 1 H 264-NTb (3.9GB)"
03/31/24
11:13:15
ReadyPlayerOne

Thank you!

Please Login to post a comment.
If you don't have any account, please Register.
  • Subscribe my Feeds
  • Facebook
Encoding Queue:  x264  x265

Latest Episodes

Popular Movies and TV Shows

  • I Saw the TV Glow
  • Camp Snoopy
  • Ultraman: Rising
  • Pawn Stars Do America
  • Exhuma
  • Interrogation Raw
  • The Bold and the Beautiful
  • Hannah Einbinder: Everything Must Go
  • MILF of Norway
  • Sistas
  • #DUPE#
  • Plot 35
  • WWE NXT
  • The Boys
  • Walker
  • Brats
  • Notas sobre un verano
  • Mower Minions
  • Evil
  • Bridgerton
  • WWE Raw
  • Lamp Life
  • Fentasy
  • The Artifice Girl
  • The Daily Show

Recent Comments

  • Rmed:

    Links are dead. Re-upload please?

  • mentalityx:

    Rad bloke.

  • mentalityx:

    Thx bloke.

  • Diggety247:

    BrokenHanded, Try using a DL manager.

  • BrokenHanded: clicknupload does not seem to work for past few days. keep getting an error saying the site is sendi...
  • Bud: Helps if you actually add these to the "Late Night with Seth Meyers" page too...
  • rambaldi70:

    Hy! Right now, my download speed : 1 Mb/s
    this is ok?
    Tx answer

  • Cinque_Persson: At 183 MB this had to be something completely different. In fact it's just the main actors commentin...
  • meyat74:

    my bad, should be full season

Archives