Sign Up   |   Sign In  
Beacon 23ParishNorth Korea: Inside the Mind of a DictatorGood TimesWillowSaturday Night LiveImmoral WomenScrambledRiddle of FireA Gentleman in MoscowBlueyBlue BloodsS.W.A.T.Pacific Rim: UprisingGrey's AnatomyThe War on ChildrenSleeping DogsFalloutFire CountryStar Trek: DiscoveryT2 TrainspottingWhiplashDamagedSugarYoung Sheldon

Announcements

04/03

2024

No

Comments

Hudson and Rex S06E12 Bark And Bite 720p AMZN WEB-DL DDP5 1 H 264-NTb
[RR/NF/CU]
Size: 1.3GB mkv H264 (HIGH) / EAC3  HD  1280x720

Hudson & Rex
File Information
[img]http://lookpic.com/cdn/i2/t/0403202410301751-1.jpg[/img]
[img]http://lookpic.com/cdn/i2/t/0403202410301751-2.jpg[/img]
[img]http://lookpic.com/cdn/i2/t/0403202410301751-3.jpg[/img]

General
Unique ID                                : 183323774476423417241556514785721832147 (0x89EADFEAE97D05C89CB823DFE1F7D2D3)
Complete name                            : Hudson and Rex S06E12 Bark And Bite 720p AMZN WEB-DL DDP5 1 H 264-NTb.mkv
Format                                   : Matroska
Format version                           : Version 4
File size                                : 1.28 GiB
Duration                                 : 44 min 1 s
Overall bit rate                         : 4 151 kb/s
Frame rate                               : 29.970 FPS
Writing application                      : mkvmerge v81.0 ('Milliontown') 64-bit
Writing library                          : libebml v1.4.4 + libmatroska v1.7.1

Video
ID                                       : 1
Format                                   : AVC
Format/Info                              : Advanced Video Codec
Format profile                           : [email protected]
Format settings                          : CABAC / 4 Ref Frames
Format settings, CABAC                   : Yes
Format settings, Reference frames        : 4 frames
Codec ID                                 : V_MPEG4/ISO/AVC
Duration                                 : 44 min 1 s
Bit rate mode                            : Constant
Bit rate                                 : 3 508 kb/s
Nominal bit rate                         : 4 000 kb/s
Width                                    : 1 280 pixels
Height                                   : 720 pixels
Display aspect ratio                     : 16:9
Frame rate mode                          : Constant
Frame rate                               : 29.970 (30000/1001) FPS
Color space                              : YUV
Chroma subsampling                       : 4:2:0
Bit depth                                : 8 bits
Scan type                                : Progressive
Bits/(Pixel*Frame)                       : 0.127
Stream size                              : 1.08 GiB (85%)
Default                                  : Yes
Forced                                   : No
Color range                              : Limited
Color primaries                          : BT.709
Transfer characteristics                 : BT.709
Matrix coefficients                      : BT.709

Audio
ID                                       : 2
Format                                   : E-AC-3
Format/Info                              : Enhanced AC-3
Commercial name                          : Dolby Digital Plus
Codec ID                                 : A_EAC3
Duration                                 : 44 min 1 s
Bit rate mode                            : Constant
Bit rate                                 : 640 kb/s
Channel(s)                               : 6 channels
Channel layout                           : L R C LFE Ls Rs
Sampling rate                            : 48.0 kHz
Frame rate                               : 31.250 FPS (1536 SPF)
Compression mode                         : Lossy
Stream size                              : 202 MiB (15%)
Language                                 : English (CA)
Service kind                             : Complete Main
Default                                  : Yes
Forced                                   : No

Text #1
ID                                       : 3
Format                                   : UTF-8
Codec ID                                 : S_TEXT/UTF8
Codec ID/Info                            : UTF-8 Plain Text
Duration                                 : 43 min 7 s
Bit rate                                 : 98 b/s
Frame rate                               : 0.424 FPS
Count of elements                        : 1098
Stream size                              : 31.2 KiB (0%)
Language                                 : English (CA)
Default                                  : No
Forced                                   : No

Text #2
ID                                       : 4
Format                                   : UTF-8
Codec ID                                 : S_TEXT/UTF8
Codec ID/Info                            : UTF-8 Plain Text
Duration                                 : 43 min 18 s
Bit rate                                 : 106 b/s
Frame rate                               : 0.476 FPS
Count of elements                        : 1236
Stream size                              : 33.9 KiB (0%)
Title                                    : SDH
Language                                 : English (CA)
Default                                  : No
Forced                                   : No



Download
File Container: MKV
Video/Audio Codec: H264 (HIGH) EAC3
Video Resolution: 1280x720
Please Login to post a comment.
If you don't have any account, please Register.
  • Subscribe my Feeds
  • Facebook
Encoding Queue:  x264  x265

Latest Episodes

Popular Movies and TV Shows

  • Beacon 23
  • Parish
  • North Korea: Inside the Mind of a Dictator
  • Good Times
  • Willow
  • Saturday Night Live
  • Immoral Women
  • Scrambled
  • Riddle of Fire
  • A Gentleman in Moscow
  • Bluey
  • Blue Bloods
  • S.W.A.T.
  • Pacific Rim: Uprising
  • Grey's Anatomy
  • The War on Children
  • Sleeping Dogs
  • Fallout
  • Fire Country
  • Star Trek: Discovery
  • T2 Trainspotting
  • Whiplash
  • Damaged
  • Sugar
  • Young Sheldon

Recent Comments

  • DownloadHostInspector:

    so far these RMTeam uploads always have a working link. DownloadHostInspector approved!

  • DownloadHostInspector:

    ah yes, this upload has a host that works. clicknupload. DownloadHostInspector approved!

  • DownloadHostInspector: Why are all the download hosts trash? none of them let you download it
  • Qua4ratic:

    clicknupload link plz

  • ppoo:

    Please, can you add "Real Time with Bill Maher S22E11" ??

  • theahtisham:

    Kindly upload Ep. 3 and 4 as well.

  • Kudzu: Update on sound issue, File's codec info says stereo but is only a the left channel If I switch i...
  • Admin:

    kang
    Getting error while encoding, sorry

  • rambaldi70:

    sorry this release ok.
    but descripton is bad
    (Duration: 2h56m7s)

Archives