Sign Up   |   Sign In  
TrackerCurb Your EnthusiasmThe EqualizerThe Fourth AngelEksThe Necro FilesThe Walking Dead: The Ones Who LiveCSI: VegasDeath in ParadiseThe PawnshopAngela's ChristmasCold CopyNinja KamuiCall the MidwifeSaturday Night LiveMinority ReportThe PredatorRorschachBelgravia: The Next ChapterHouse of GodsAvatar: The Last AirbenderThe BirdsWonkaPrometheusS.W.A.T.

Announcements

02/08

2024

1

Comments

Our Flag Means Death S02E01 Impossible Birds 1080p AMZN WEB-DL DDP5 1 H 264-NTb
[RR/NF/CU]
Size: 1.6GB mkv H264 (HIGH) / EAC3  HD  1920x960

Our Flag Means Death
File Information
[img]http://lookpic.com/cdn/i2/t/0208202403192346-1.jpg[/img]
[img]http://lookpic.com/cdn/i2/t/0208202403192346-2.jpg[/img]
[img]http://lookpic.com/cdn/i2/t/0208202403192346-3.jpg[/img]

General
Unique ID                                : 284062787056614408678692824830668393153 (0xD5B480B564B2915F6BF9B43D0B674AC1)
Complete name                            : Our.Flag.Means.Death.S02E01.Impossible.Birds.1080p.AMZN.WEB-DL.DDP5.1.H.264-NTb.mkv
Format                                   : Matroska
Format version                           : Version 4
File size                                : 1.60 GiB
Duration                                 : 28 min 7 s
Overall bit rate                         : 8 164 kb/s
Frame rate                               : 24.000 FPS
Writing application                      : mkvmerge v78.0 ('Running') 64-bit
Writing library                          : libebml v1.4.4 + libmatroska v1.7.1

Video
ID                                       : 1
Format                                   : AVC
Format/Info                              : Advanced Video Codec
Format profile                           : High@L4
Format settings                          : CABAC / 4 Ref Frames
Format settings, CABAC                   : Yes
Format settings, Reference frames        : 4 frames
Codec ID                                 : V_MPEG4/ISO/AVC
Duration                                 : 28 min 7 s
Bit rate mode                            : Constant
Bit rate                                 : 7 391 kb/s
Nominal bit rate                         : 10 000 kb/s
Width                                    : 1 920 pixels
Height                                   : 960 pixels
Display aspect ratio                     : 2.000
Frame rate mode                          : Constant
Frame rate                               : 24.000 FPS
Color space                              : YUV
Chroma subsampling                       : 4:2:0
Bit depth                                : 8 bits
Scan type                                : Progressive
Bits/(Pixel*Frame)                       : 0.167
Stream size                              : 1.45 GiB (91%)
Default                                  : Yes
Forced                                   : No
Color range                              : Limited
Color primaries                          : BT.709
Transfer characteristics                 : BT.709
Matrix coefficients                      : BT.709

Audio
ID                                       : 2
Format                                   : E-AC-3 JOC
Format/Info                              : Enhanced AC-3 with Joint Object Coding
Commercial name                          : Dolby Digital Plus with Dolby Atmos
Codec ID                                 : A_EAC3
Duration                                 : 28 min 7 s
Bit rate mode                            : Constant
Bit rate                                 : 768 kb/s
Channel(s)                               : 6 channels
Channel layout                           : L R C LFE Ls Rs
Sampling rate                            : 48.0 kHz
Frame rate                               : 31.250 FPS (1536 SPF)
Compression mode                         : Lossy
Stream size                              : 155 MiB (9%)
Language                                 : English
Service kind                             : Complete Main
Default                                  : Yes
Forced                                   : No
Complexity index                         : 16
Number of dynamic objects                : 15
Bed channel count                        : 1 channel
Bed channel configuration                : LFE

Text #1
ID                                       : 3
Format                                   : UTF-8
Codec ID                                 : S_TEXT/UTF8
Codec ID/Info                            : UTF-8 Plain Text
Duration                                 : 27 min 33 s
Bit rate                                 : 69 b/s
Frame rate                               : 0.269 FPS
Count of elements                        : 445
Stream size                              : 14.1 KiB (0%)
Language                                 : English (US)
Default                                  : No
Forced                                   : No

Text #2
ID                                       : 4
Format                                   : UTF-8
Codec ID                                 : S_TEXT/UTF8
Codec ID/Info                            : UTF-8 Plain Text
Duration                                 : 27 min 52 s
Bit rate                                 : 92 b/s
Frame rate                               : 0.340 FPS
Count of elements                        : 568
Stream size                              : 18.9 KiB (0%)
Title                                    : SDH
Language                                 : English (US)
Default                                  : No
Forced                                   : No

Text #3
ID                                       : 5
Format                                   : UTF-8
Codec ID                                 : S_TEXT/UTF8
Codec ID/Info                            : UTF-8 Plain Text
Duration                                 : 27 min 41 s
Bit rate                                 : 110 b/s
Frame rate                               : 0.271 FPS
Count of elements                        : 451
Stream size                              : 22.4 KiB (0%)
Language                                 : Bulgarian (BG)
Default                                  : No
Forced                                   : No

Text #4
ID                                       : 6
Format                                   : UTF-8
Codec ID                                 : S_TEXT/UTF8
Codec ID/Info                            : UTF-8 Plain Text
Duration                                 : 27 min 41 s
Bit rate                                 : 65 b/s
Frame rate                               : 0.287 FPS
Count of elements                        : 477
Stream size                              : 13.2 KiB (0%)
Language                                 : Czech (CZ)
Default                                  : No
Forced                                   : No

Text #5
ID                                       : 7
Format                                   : UTF-8
Codec ID                                 : S_TEXT/UTF8
Codec ID/Info                            : UTF-8 Plain Text
Duration                                 : 27 min 41 s
Bit rate                                 : 64 b/s
Frame rate                               : 0.271 FPS
Count of elements                        : 450
Stream size                              : 13.2 KiB (0%)
Language                                 : Danish (DK)
Default                                  : No
Forced                                   : No

Text #6
ID                                       : 8
Format                                   : UTF-8
Codec ID                                 : S_TEXT/UTF8
Codec ID/Info                            : UTF-8 Plain Text
Duration                                 : 27 min 37 s
Bit rate                                 : 67 b/s
Frame rate                               : 0.265 FPS
Count of elements                        : 439
Stream size                              : 13.8 KiB (0%)
Title                                    : Spanish (Latin America)
Language                                 : Spanish (Latin America)
Default                                  : No
Forced                                   : No

Text #7
ID                                       : 9
Format                                   : UTF-8
Codec ID                                 : S_TEXT/UTF8
Codec ID/Info                            : UTF-8 Plain Text
Duration                                 : 27 min 41 s
Bit rate                                 : 69 b/s
Frame rate                               : 0.287 FPS
Count of elements                        : 477
Stream size                              : 14.2 KiB (0%)
Title                                    : Spanish (Spain)
Language                                 : Spanish (ES)
Default                                  : No
Forced                                   : No

Text #8
ID                                       : 10
Format                                   : UTF-8
Codec ID                                 : S_TEXT/UTF8
Codec ID/Info                            : UTF-8 Plain Text
Duration                                 : 27 min 41 s
Bit rate                                 : 66 b/s
Frame rate                               : 0.262 FPS
Count of elements                        : 436
Stream size                              : 13.4 KiB (0%)
Language                                 : Finnish (FI)
Default                                  : No
Forced                                   : No

Text #9
ID                                       : 11
Format                                   : UTF-8
Codec ID                                 : S_TEXT/UTF8
Codec ID/Info                            : UTF-8 Plain Text
Duration                                 : 27 min 41 s
Bit rate                                 : 57 b/s
Frame rate                               : 0.277 FPS
Count of elements                        : 460
Stream size                              : 11.6 KiB (0%)
Language                                 : Croatian (HR)
Default                                  : No
Forced                                   : No

Text #10
ID                                       : 12
Format                                   : UTF-8
Codec ID                                 : S_TEXT/UTF8
Codec ID/Info                            : UTF-8 Plain Text
Duration                                 : 27 min 41 s
Bit rate                                 : 67 b/s
Frame rate                               : 0.287 FPS
Count of elements                        : 477
Stream size                              : 13.8 KiB (0%)
Language                                 : Hungarian (HU)
Default                                  : No
Forced                                   : No

Text #11
ID                                       : 13
Format                                   : UTF-8
Codec ID                                 : S_TEXT/UTF8
Codec ID/Info                            : UTF-8 Plain Text
Duration                                 : 27 min 41 s
Bit rate                                 : 95 b/s
Frame rate                               : 0.286 FPS
Count of elements                        : 476
Stream size                              : 19.4 KiB (0%)
Language                                 : Macedonian (MK)
Default                                  : No
Forced                                   : No

Text #12
ID                                       : 14
Format                                   : UTF-8
Codec ID                                 : S_TEXT/UTF8
Codec ID/Info                            : UTF-8 Plain Text
Duration                                 : 27 min 41 s
Bit rate                                 : 69 b/s
Frame rate                               : 0.286 FPS
Count of elements                        : 476
Stream size                              : 14.0 KiB (0%)
Language                                 : Dutch (NL)
Default                                  : No
Forced                                   : No

Text #13
ID                                       : 15
Format                                   : UTF-8
Codec ID                                 : S_TEXT/UTF8
Codec ID/Info                            : UTF-8 Plain Text
Duration                                 : 27 min 41 s
Bit rate                                 : 64 b/s
Frame rate                               : 0.283 FPS
Count of elements                        : 470
Stream size                              : 13.0 KiB (0%)
Language                                 : Norwegian (NO)
Default                                  : No
Forced                                   : No

Text #14
ID                                       : 16
Format                                   : UTF-8
Codec ID                                 : S_TEXT/UTF8
Codec ID/Info                            : UTF-8 Plain Text
Duration                                 : 27 min 41 s
Bit rate                                 : 54 b/s
Frame rate                               : 0.287 FPS
Count of elements                        : 477
Stream size                              : 11.1 KiB (0%)
Language                                 : Polish (PL)
Default                                  : No
Forced                                   : No

Text #15
ID                                       : 17
Format                                   : UTF-8
Codec ID                                 : S_TEXT/UTF8
Codec ID/Info                            : UTF-8 Plain Text
Duration                                 : 27 min 37 s
Bit rate                                 : 63 b/s
Frame rate                               : 0.265 FPS
Count of elements                        : 439
Stream size                              : 12.9 KiB (0%)
Title                                    : Portuguese (Brazil)
Language                                 : Portuguese (BR)
Default                                  : No
Forced                                   : No

Text #16
ID                                       : 18
Format                                   : UTF-8
Codec ID                                 : S_TEXT/UTF8
Codec ID/Info                            : UTF-8 Plain Text
Duration                                 : 27 min 41 s
Bit rate                                 : 65 b/s
Frame rate                               : 0.277 FPS
Count of elements                        : 461
Stream size                              : 13.3 KiB (0%)
Title                                    : Portuguese (Portugal)
Language                                 : Portuguese (PT)
Default                                  : No
Forced                                   : No

Text #17
ID                                       : 19
Format                                   : UTF-8
Codec ID                                 : S_TEXT/UTF8
Codec ID/Info                            : UTF-8 Plain Text
Duration                                 : 27 min 41 s
Bit rate                                 : 59 b/s
Frame rate                               : 0.235 FPS
Count of elements                        : 390
Stream size                              : 12.1 KiB (0%)
Language                                 : Romanian (RO)
Default                                  : No
Forced                                   : No

Text #18
ID                                       : 20
Format                                   : UTF-8
Codec ID                                 : S_TEXT/UTF8
Codec ID/Info                            : UTF-8 Plain Text
Duration                                 : 27 min 41 s
Bit rate                                 : 115 b/s
Frame rate                               : 0.288 FPS
Count of elements                        : 479
Stream size                              : 23.4 KiB (0%)
Language                                 : Russian (RU)
Default                                  : No
Forced                                   : No

Text #19
ID                                       : 21
Format                                   : UTF-8
Codec ID                                 : S_TEXT/UTF8
Codec ID/Info                            : UTF-8 Plain Text
Duration                                 : 27 min 41 s
Bit rate                                 : 57 b/s
Frame rate                               : 0.286 FPS
Count of elements                        : 476
Stream size                              : 11.7 KiB (0%)
Language                                 : Slovenian (SI)
Default                                  : No
Forced                                   : No

Text #20
ID                                       : 22
Format                                   : UTF-8
Codec ID                                 : S_TEXT/UTF8
Codec ID/Info                            : UTF-8 Plain Text
Duration                                 : 27 min 41 s
Bit rate                                 : 63 b/s
Frame rate                               : 0.286 FPS
Count of elements                        : 476
Stream size                              : 12.9 KiB (0%)
Language                                 : Serbian-Latn-RS
Default                                  : No
Forced                                   : No

Text #21
ID                                       : 23
Format                                   : UTF-8
Codec ID                                 : S_TEXT/UTF8
Codec ID/Info                            : UTF-8 Plain Text
Duration                                 : 27 min 41 s
Bit rate                                 : 62 b/s
Frame rate                               : 0.269 FPS
Count of elements                        : 447
Stream size                              : 12.7 KiB (0%)
Language                                 : Swedish (SE)
Default                                  : No
Forced                                   : No

Menu
00:00:00.000                             : en:Chapter 1
00:28:01.031                             : en:Credits



Download
File Container: MKV
Video/Audio Codec: H264 (HIGH) EAC3
Video Resolution: 1920x960

1 Response to "[RR/NF/CU] Our Flag Means Death S02E01 Impossible Birds 1080p AMZN WEB-DL DDP5 1 H 264-NTb (1.6GB)"
02/08/24
14:17:36
ReadyPlayerOne

Thank You

Please Login to post a comment.
If you don't have any account, please Register.
  • Subscribe my Feeds
  • Facebook
Encoding Queue:  x264  x265

Latest Episodes

Popular Movies and TV Shows

  • Tracker
  • Curb Your Enthusiasm
  • The Equalizer
  • The Fourth Angel
  • Eks
  • The Necro Files
  • The Walking Dead: The Ones Who Live
  • CSI: Vegas
  • Death in Paradise
  • The Pawnshop
  • Angela's Christmas
  • Cold Copy
  • Ninja Kamui
  • Call the Midwife
  • Saturday Night Live
  • Minority Report
  • The Predator
  • Rorschach
  • Belgravia: The Next Chapter
  • House of Gods
  • Avatar: The Last Airbender
  • The Birds
  • Wonka
  • Prometheus
  • S.W.A.T.

Recent Comments

  • vladtoday: Представляем вам Владивосток Сегодня - основное онлай�...
  • timt:

    Enjoy the Carry On Movies!

  • Demonz:

    Subtitles look like Russian, not English ?

  • Katzengoettin:

    Please upload

  • MarcoCosta: First of all, THANK YOU for the RE-upload!Now, as this release doesn't include subtitles for the fre...
  • mentalityx:

    Nice one bloke.

  • mentalityx:

    TY

  • MarcoCosta: is it possible to RE-UP this one (or any other release)? All links from all releases are dead...As a...
  • drorsabi1:

    Fire Country sesason 2 episode 2 is the same as episode 1

  • gasol:

    All ClicknUpload links are down, please reupload

  • aaroz88:

    trimas!!

  • mentalityx:

    Thx for this mate.

  • Thomasnam: Салям тут можно устроиться кладменом [url=https://deliveryjob...
  • lyndak2:

    Episodes 5 & 6 Please!

  • uncabrian:

    Please upload a smaller sixed file if possible.

  • asalan:

    please reupload

Archives