Sign Up   |   Sign In  
Family GuyThe 100th: Billy Joel at Madison Square Garden - The Greatest Arena Run of All TimeHundreds of BeaversÔkami to kôshinryô: merchant meets the wise wolfStill: A Michael J. Fox MovieThe Banished Former Hero Lives as He PleasesThe SympathizerTrackerDune: Part TwoModel HouseAbba: How They Won EurovisionFull SwingThe Great NorthWhen Calls the HeartSullivan's CrossingThe Batman vs. DraculaKurt Cobain: Moments That Shook MusicThe ChannelFalloutBeacon 23ShogunTrinket BoxThere's Still TomorrowTo Die ForFBI

Announcements

04/03

2024

1

Comments

Palm Royale S01E05 Maxine Shakes the Tree 1080p ATVP WEB-DL DDP5 1 Atmos H 264-FLUX
[RR/NF]
Size: 3.6GB mkv H264 (HIGH) / EAC3  HD  1918x816

Palm Royale
File Information
[img]http://lookpic.com/cdn/i2/t/0403202404342257-1.jpg[/img]
[img]http://lookpic.com/cdn/i2/t/0403202404342257-2.jpg[/img]
[img]http://lookpic.com/cdn/i2/t/0403202404342257-3.jpg[/img]

General
Unique ID                                : 131545973071893265172367563512112421330 (0x62F6D53654ACC134B6CF5E373BAB19D2)
Complete name                            : Palm Royale S01E05 Maxine Shakes the Tree 1080p ATVP WEB-DL DDP5 1 Atmos H 264-FLUX.mkv
Format                                   : Matroska
Format version                           : Version 4
File size                                : 3.63 GiB
Duration                                 : 48 min 26 s
Overall bit rate                         : 10.7 Mb/s
Frame rate                               : 23.976 FPS
Writing application                      : mkvmerge v82.0 ('I'm The President') 64-bit
Writing library                          : libebml v1.4.5 + libmatroska v1.7.1

Video
ID                                       : 1
Format                                   : AVC
Format/Info                              : Advanced Video Codec
Format profile                           : High@L4
Format settings                          : CABAC / 5 Ref Frames
Format settings, CABAC                   : Yes
Format settings, Reference frames        : 5 frames
Codec ID                                 : V_MPEG4/ISO/AVC
Duration                                 : 48 min 26 s
Bit rate                                 : 9 937 kb/s
Width                                    : 1 918 pixels
Height                                   : 816 pixels
Display aspect ratio                     : 2.35:1
Frame rate mode                          : Constant
Frame rate                               : 23.976 (24000/1001) FPS
Color space                              : YUV
Chroma subsampling                       : 4:2:0
Bit depth                                : 8 bits
Scan type                                : Progressive
Bits/(Pixel*Frame)                       : 0.265
Stream size                              : 3.36 GiB (93%)
Language                                 : English
Default                                  : Yes
Forced                                   : No
Color range                              : Limited
Color primaries                          : BT.709
Transfer characteristics                 : BT.709
Matrix coefficients                      : BT.709

Audio
ID                                       : 2
Format                                   : E-AC-3 JOC
Format/Info                              : Enhanced AC-3 with Joint Object Coding
Commercial name                          : Dolby Digital Plus with Dolby Atmos
Codec ID                                 : A_EAC3
Duration                                 : 48 min 26 s
Bit rate mode                            : Constant
Bit rate                                 : 768 kb/s
Channel(s)                               : 6 channels
Channel layout                           : L R C LFE Ls Rs
Sampling rate                            : 48.0 kHz
Frame rate                               : 31.250 FPS (1536 SPF)
Compression mode                         : Lossy
Stream size                              : 266 MiB (7%)
Language                                 : English
Service kind                             : Complete Main
Default                                  : Yes
Forced                                   : No
Complexity index                         : 16
Number of dynamic objects                : 15
Bed channel count                        : 1 channel
Bed channel configuration                : LFE

Text #1
ID                                       : 3
Format                                   : UTF-8
Codec ID                                 : S_TEXT/UTF8
Codec ID/Info                            : UTF-8 Plain Text
Duration                                 : 45 min 36 s
Bit rate                                 : 81 b/s
Frame rate                               : 0.265 FPS
Count of elements                        : 725
Stream size                              : 27.2 KiB (0%)
Language                                 : English
Default                                  : No
Forced                                   : No

Text #2
ID                                       : 4
Format                                   : UTF-8
Codec ID                                 : S_TEXT/UTF8
Codec ID/Info                            : UTF-8 Plain Text
Duration                                 : 45 min 40 s
Bit rate                                 : 95 b/s
Frame rate                               : 0.300 FPS
Count of elements                        : 821
Stream size                              : 32.1 KiB (0%)
Title                                    : SDH
Language                                 : English
Default                                  : No
Forced                                   : No

Text #3
ID                                       : 5
Format                                   : UTF-8
Codec ID                                 : S_TEXT/UTF8
Codec ID/Info                            : UTF-8 Plain Text
Duration                                 : 47 min 15 s
Bit rate                                 : 117 b/s
Frame rate                               : 0.258 FPS
Count of elements                        : 731
Stream size                              : 40.5 KiB (0%)
Language                                 : Arabic
Default                                  : No
Forced                                   : No

Text #4
ID                                       : 6
Format                                   : UTF-8
Codec ID                                 : S_TEXT/UTF8
Codec ID/Info                            : UTF-8 Plain Text
Duration                                 : 47 min 15 s
Bit rate                                 : 110 b/s
Frame rate                               : 0.219 FPS
Count of elements                        : 620
Stream size                              : 38.2 KiB (0%)
Language                                 : Bulgarian
Default                                  : No
Forced                                   : No

Text #5
ID                                       : 7
Format                                   : UTF-8
Codec ID                                 : S_TEXT/UTF8
Codec ID/Info                            : UTF-8 Plain Text
Duration                                 : 47 min 15 s
Bit rate                                 : 71 b/s
Frame rate                               : 0.259 FPS
Count of elements                        : 734
Stream size                              : 24.8 KiB (0%)
Title                                    : Simplified
Language                                 : Chinese (Simplified)
Default                                  : No
Forced                                   : No

Text #6
ID                                       : 8
Format                                   : UTF-8
Codec ID                                 : S_TEXT/UTF8
Codec ID/Info                            : UTF-8 Plain Text
Duration                                 : 47 min 15 s
Bit rate                                 : 68 b/s
Frame rate                               : 0.260 FPS
Count of elements                        : 736
Stream size                              : 23.8 KiB (0%)
Title                                    : Traditional
Language                                 : Chinese (Traditional)
Default                                  : No
Forced                                   : No

Text #7
ID                                       : 9
Format                                   : UTF-8
Codec ID                                 : S_TEXT/UTF8
Codec ID/Info                            : UTF-8 Plain Text
Duration                                 : 47 min 15 s
Bit rate                                 : 69 b/s
Frame rate                               : 0.246 FPS
Count of elements                        : 698
Stream size                              : 24.1 KiB (0%)
Language                                 : Czech
Default                                  : No
Forced                                   : No

Text #8
ID                                       : 10
Format                                   : UTF-8
Codec ID                                 : S_TEXT/UTF8
Codec ID/Info                            : UTF-8 Plain Text
Duration                                 : 46 min 54 s
Bit rate                                 : 69 b/s
Frame rate                               : 0.211 FPS
Count of elements                        : 594
Stream size                              : 23.8 KiB (0%)
Language                                 : Danish
Default                                  : No
Forced                                   : No

Text #9
ID                                       : 11
Format                                   : UTF-8
Codec ID                                 : S_TEXT/UTF8
Codec ID/Info                            : UTF-8 Plain Text
Duration                                 : 47 min 25 s
Bit rate                                 : 87 b/s
Frame rate                               : 0.260 FPS
Count of elements                        : 739
Stream size                              : 30.5 KiB (0%)
Language                                 : German
Default                                  : No
Forced                                   : No

Text #10
ID                                       : 12
Format                                   : UTF-8
Codec ID                                 : S_TEXT/UTF8
Codec ID/Info                            : UTF-8 Plain Text
Duration                                 : 47 min 15 s
Bit rate                                 : 126 b/s
Frame rate                               : 0.254 FPS
Count of elements                        : 720
Stream size                              : 43.7 KiB (0%)
Language                                 : Greek
Default                                  : No
Forced                                   : No

Text #11
ID                                       : 13
Format                                   : UTF-8
Codec ID                                 : S_TEXT/UTF8
Codec ID/Info                            : UTF-8 Plain Text
Duration                                 : 47 min 15 s
Bit rate                                 : 76 b/s
Frame rate                               : 0.259 FPS
Count of elements                        : 735
Stream size                              : 26.6 KiB (0%)
Title                                    : Latin American
Language                                 : Spanish (Latin America)
Default                                  : No
Forced                                   : No

Text #12
ID                                       : 14
Format                                   : UTF-8
Codec ID                                 : S_TEXT/UTF8
Codec ID/Info                            : UTF-8 Plain Text
Duration                                 : 47 min 25 s
Bit rate                                 : 76 b/s
Frame rate                               : 0.255 FPS
Count of elements                        : 726
Stream size                              : 26.6 KiB (0%)
Language                                 : Spanish (ES)
Default                                  : No
Forced                                   : No

Text #13
ID                                       : 15
Format                                   : UTF-8
Codec ID                                 : S_TEXT/UTF8
Codec ID/Info                            : UTF-8 Plain Text
Duration                                 : 47 min 15 s
Bit rate                                 : 74 b/s
Frame rate                               : 0.255 FPS
Count of elements                        : 723
Stream size                              : 25.7 KiB (0%)
Language                                 : Estonian
Default                                  : No
Forced                                   : No

Text #14
ID                                       : 16
Format                                   : UTF-8
Codec ID                                 : S_TEXT/UTF8
Codec ID/Info                            : UTF-8 Plain Text
Duration                                 : 47 min 15 s
Bit rate                                 : 72 b/s
Frame rate                               : 0.243 FPS
Count of elements                        : 688
Stream size                              : 25.1 KiB (0%)
Language                                 : Finnish
Default                                  : No
Forced                                   : No

Text #15
ID                                       : 17
Format                                   : UTF-8
Codec ID                                 : S_TEXT/UTF8
Codec ID/Info                            : UTF-8 Plain Text
Duration                                 : 47 min 0 s
Bit rate                                 : 68 b/s
Frame rate                               : 0.288 FPS
Count of elements                        : 811
Stream size                              : 23.7 KiB (0%)
Title                                    : Canadian
Language                                 : French (CA)
Default                                  : No
Forced                                   : No

Text #16
ID                                       : 18
Format                                   : UTF-8
Codec ID                                 : S_TEXT/UTF8
Codec ID/Info                            : UTF-8 Plain Text
Duration                                 : 47 min 0 s
Bit rate                                 : 68 b/s
Frame rate                               : 0.287 FPS
Count of elements                        : 810
Stream size                              : 23.7 KiB (0%)
Language                                 : French (FR)
Default                                  : No
Forced                                   : No

Text #17
ID                                       : 19
Format                                   : UTF-8
Codec ID                                 : S_TEXT/UTF8
Codec ID/Info                            : UTF-8 Plain Text
Duration                                 : 47 min 15 s
Bit rate                                 : 111 b/s
Frame rate                               : 0.258 FPS
Count of elements                        : 732
Stream size                              : 38.6 KiB (0%)
Language                                 : Hebrew
Default                                  : No
Forced                                   : No

Text #18
ID                                       : 20
Format                                   : UTF-8
Codec ID                                 : S_TEXT/UTF8
Codec ID/Info                            : UTF-8 Plain Text
Duration                                 : 47 min 15 s
Bit rate                                 : 209 b/s
Frame rate                               : 0.259 FPS
Count of elements                        : 735
Stream size                              : 72.6 KiB (0%)
Language                                 : Hindi
Default                                  : No
Forced                                   : No

Text #19
ID                                       : 21
Format                                   : UTF-8
Codec ID                                 : S_TEXT/UTF8
Codec ID/Info                            : UTF-8 Plain Text
Duration                                 : 47 min 15 s
Bit rate                                 : 72 b/s
Frame rate                               : 0.255 FPS
Count of elements                        : 723
Stream size                              : 25.1 KiB (0%)
Language                                 : Hungarian
Default                                  : No
Forced                                   : No

Text #20
ID                                       : 22
Format                                   : UTF-8
Codec ID                                 : S_TEXT/UTF8
Codec ID/Info                            : UTF-8 Plain Text
Duration                                 : 47 min 15 s
Bit rate                                 : 79 b/s
Frame rate                               : 0.258 FPS
Count of elements                        : 732
Stream size                              : 27.7 KiB (0%)
Language                                 : Indonesian
Default                                  : No
Forced                                   : No

Text #21
ID                                       : 23
Format                                   : UTF-8
Codec ID                                 : S_TEXT/UTF8
Codec ID/Info                            : UTF-8 Plain Text
Duration                                 : 47 min 25 s
Bit rate                                 : 87 b/s
Frame rate                               : 0.267 FPS
Count of elements                        : 761
Stream size                              : 30.4 KiB (0%)
Language                                 : Italian
Default                                  : No
Forced                                   : No

Text #22
ID                                       : 24
Format                                   : UTF-8
Codec ID                                 : S_TEXT/UTF8
Codec ID/Info                            : UTF-8 Plain Text
Duration                                 : 47 min 8 s
Bit rate                                 : 60 b/s
Frame rate                               : 0.264 FPS
Count of elements                        : 746
Stream size                              : 20.8 KiB (0%)
Language                                 : Japanese
Default                                  : No
Forced                                   : No

Text #23
ID                                       : 25
Format                                   : UTF-8
Codec ID                                 : S_TEXT/UTF8
Codec ID/Info                            : UTF-8 Plain Text
Duration                                 : 47 min 15 s
Bit rate                                 : 87 b/s
Frame rate                               : 0.259 FPS
Count of elements                        : 734
Stream size                              : 30.2 KiB (0%)
Language                                 : Korean
Default                                  : No
Forced                                   : No

Text #24
ID                                       : 26
Format                                   : UTF-8
Codec ID                                 : S_TEXT/UTF8
Codec ID/Info                            : UTF-8 Plain Text
Duration                                 : 47 min 15 s
Bit rate                                 : 76 b/s
Frame rate                               : 0.258 FPS
Count of elements                        : 733
Stream size                              : 26.4 KiB (0%)
Language                                 : Lithuanian
Default                                  : No
Forced                                   : No

Text #25
ID                                       : 27
Format                                   : UTF-8
Codec ID                                 : S_TEXT/UTF8
Codec ID/Info                            : UTF-8 Plain Text
Duration                                 : 47 min 15 s
Bit rate                                 : 76 b/s
Frame rate                               : 0.254 FPS
Count of elements                        : 719
Stream size                              : 26.6 KiB (0%)
Language                                 : Latvian
Default                                  : No
Forced                                   : No

Text #26
ID                                       : 28
Format                                   : UTF-8
Codec ID                                 : S_TEXT/UTF8
Codec ID/Info                            : UTF-8 Plain Text
Duration                                 : 47 min 15 s
Bit rate                                 : 76 b/s
Frame rate                               : 0.257 FPS
Count of elements                        : 729
Stream size                              : 26.3 KiB (0%)
Language                                 : Malay
Default                                  : No
Forced                                   : No

Text #27
ID                                       : 29
Format                                   : UTF-8
Codec ID                                 : S_TEXT/UTF8
Codec ID/Info                            : UTF-8 Plain Text
Duration                                 : 47 min 15 s
Bit rate                                 : 67 b/s
Frame rate                               : 0.229 FPS
Count of elements                        : 650
Stream size                              : 23.4 KiB (0%)
Language                                 : Dutch
Default                                  : No
Forced                                   : No

Text #28
ID                                       : 30
Format                                   : UTF-8
Codec ID                                 : S_TEXT/UTF8
Codec ID/Info                            : UTF-8 Plain Text
Duration                                 : 47 min 15 s
Bit rate                                 : 72 b/s
Frame rate                               : 0.215 FPS
Count of elements                        : 610
Stream size                              : 25.1 KiB (0%)
Language                                 : Norwegian
Default                                  : No
Forced                                   : No

Text #29
ID                                       : 31
Format                                   : UTF-8
Codec ID                                 : S_TEXT/UTF8
Codec ID/Info                            : UTF-8 Plain Text
Duration                                 : 47 min 15 s
Bit rate                                 : 76 b/s
Frame rate                               : 0.257 FPS
Count of elements                        : 728
Stream size                              : 26.5 KiB (0%)
Language                                 : Polish
Default                                  : No
Forced                                   : No

Text #30
ID                                       : 32
Format                                   : UTF-8
Codec ID                                 : S_TEXT/UTF8
Codec ID/Info                            : UTF-8 Plain Text
Duration                                 : 47 min 15 s
Bit rate                                 : 78 b/s
Frame rate                               : 0.257 FPS
Count of elements                        : 730
Stream size                              : 27.2 KiB (0%)
Language                                 : Portuguese
Default                                  : No
Forced                                   : No

Text #31
ID                                       : 33
Format                                   : UTF-8
Codec ID                                 : S_TEXT/UTF8
Codec ID/Info                            : UTF-8 Plain Text
Duration                                 : 47 min 15 s
Bit rate                                 : 68 b/s
Frame rate                               : 0.244 FPS
Count of elements                        : 693
Stream size                              : 23.6 KiB (0%)
Title                                    : Brazilian
Language                                 : Portuguese (BR)
Default                                  : No
Forced                                   : No

Text #32
ID                                       : 34
Format                                   : UTF-8
Codec ID                                 : S_TEXT/UTF8
Codec ID/Info                            : UTF-8 Plain Text
Duration                                 : 47 min 15 s
Bit rate                                 : 110 b/s
Frame rate                               : 0.249 FPS
Count of elements                        : 705
Stream size                              : 38.3 KiB (0%)
Language                                 : Russian
Default                                  : No
Forced                                   : No

Text #33
ID                                       : 35
Format                                   : UTF-8
Codec ID                                 : S_TEXT/UTF8
Codec ID/Info                            : UTF-8 Plain Text
Duration                                 : 46 min 53 s
Bit rate                                 : 70 b/s
Frame rate                               : 0.259 FPS
Count of elements                        : 728
Stream size                              : 24.2 KiB (0%)
Language                                 : Slovak
Default                                  : No
Forced                                   : No

Text #34
ID                                       : 36
Format                                   : UTF-8
Codec ID                                 : S_TEXT/UTF8
Codec ID/Info                            : UTF-8 Plain Text
Duration                                 : 47 min 15 s
Bit rate                                 : 62 b/s
Frame rate                               : 0.240 FPS
Count of elements                        : 680
Stream size                              : 21.7 KiB (0%)
Language                                 : Slovenian
Default                                  : No
Forced                                   : No

Text #35
ID                                       : 37
Format                                   : UTF-8
Codec ID                                 : S_TEXT/UTF8
Codec ID/Info                            : UTF-8 Plain Text
Duration                                 : 47 min 15 s
Bit rate                                 : 77 b/s
Frame rate                               : 0.248 FPS
Count of elements                        : 704
Stream size                              : 26.7 KiB (0%)
Language                                 : Swedish
Default                                  : No
Forced                                   : No

Text #36
ID                                       : 38
Format                                   : UTF-8
Codec ID                                 : S_TEXT/UTF8
Codec ID/Info                            : UTF-8 Plain Text
Duration                                 : 47 min 15 s
Bit rate                                 : 245 b/s
Frame rate                               : 0.258 FPS
Count of elements                        : 733
Stream size                              : 85.1 KiB (0%)
Language                                 : Tamil
Default                                  : No
Forced                                   : No

Text #37
ID                                       : 39
Format                                   : UTF-8
Codec ID                                 : S_TEXT/UTF8
Codec ID/Info                            : UTF-8 Plain Text
Duration                                 : 47 min 15 s
Bit rate                                 : 236 b/s
Frame rate                               : 0.259 FPS
Count of elements                        : 734
Stream size                              : 81.8 KiB (0%)
Language                                 : Telugu
Default                                  : No
Forced                                   : No

Text #38
ID                                       : 40
Format                                   : UTF-8
Codec ID                                 : S_TEXT/UTF8
Codec ID/Info                            : UTF-8 Plain Text
Duration                                 : 47 min 15 s
Bit rate                                 : 163 b/s
Frame rate                               : 0.259 FPS
Count of elements                        : 735
Stream size                              : 56.7 KiB (0%)
Language                                 : Thai
Default                                  : No
Forced                                   : No

Text #39
ID                                       : 41
Format                                   : UTF-8
Codec ID                                 : S_TEXT/UTF8
Codec ID/Info                            : UTF-8 Plain Text
Duration                                 : 47 min 15 s
Bit rate                                 : 77 b/s
Frame rate                               : 0.253 FPS
Count of elements                        : 718
Stream size                              : 26.9 KiB (0%)
Language                                 : Turkish
Default                                  : No
Forced                                   : No

Text #40
ID                                       : 42
Format                                   : UTF-8
Codec ID                                 : S_TEXT/UTF8
Codec ID/Info                            : UTF-8 Plain Text
Duration                                 : 47 min 15 s
Bit rate                                 : 113 b/s
Frame rate                               : 0.259 FPS
Count of elements                        : 735
Stream size                              : 39.4 KiB (0%)
Language                                 : Ukrainian
Default                                  : No
Forced                                   : No

Text #41
ID                                       : 43
Format                                   : UTF-8
Codec ID                                 : S_TEXT/UTF8
Codec ID/Info                            : UTF-8 Plain Text
Duration                                 : 47 min 15 s
Bit rate                                 : 94 b/s
Frame rate                               : 0.258 FPS
Count of elements                        : 733
Stream size                              : 32.6 KiB (0%)
Language                                 : Vietnamese
Default                                  : No
Forced                                   : No

Text #42
ID                                       : 44
Format                                   : UTF-8
Codec ID                                 : S_TEXT/UTF8
Codec ID/Info                            : UTF-8 Plain Text
Duration                                 : 47 min 15 s
Bit rate                                 : 66 b/s
Frame rate                               : 0.260 FPS
Count of elements                        : 736
Stream size                              : 23.0 KiB (0%)
Title                                    : Traditional
Language                                 : Cantonese (Hant)
Default                                  : No
Forced                                   : No

Menu
00:00:00.000                             : en:Studio Logo
00:00:08.963                             : en:Recap
00:00:53.592                             : en:Scene 01
00:47:11.000                             : en:Credits



Download
File Container: MKV
Video/Audio Codec: H264 (HIGH) EAC3
Video Resolution: 1918x816

1 Response to "[RR/NF] Palm Royale S01E05 Maxine Shakes the Tree 1080p ATVP WEB-DL DDP5 1 Atmos H 264-FLUX (3.6GB)"
04/03/24
06:56:10
ReadyPlayerOne

Thank you!

Please Login to post a comment.
If you don't have any account, please Register.
  • Subscribe my Feeds
  • Facebook
Encoding Queue:  x264  x265

Latest Episodes

Popular Movies and TV Shows

  • Family Guy
  • The 100th: Billy Joel at Madison Square Garden - The Greatest Arena Run of All Time
  • Hundreds of Beavers
  • Ôkami to kôshinryô: merchant meets the wise wolf
  • Still: A Michael J. Fox Movie
  • The Banished Former Hero Lives as He Pleases
  • The Sympathizer
  • Tracker
  • Dune: Part Two
  • Model House
  • Abba: How They Won Eurovision
  • Full Swing
  • The Great North
  • When Calls the Heart
  • Sullivan's Crossing
  • The Batman vs. Dracula
  • Kurt Cobain: Moments That Shook Music
  • The Channel
  • Fallout
  • Beacon 23
  • Shogun
  • Trinket Box
  • There's Still Tomorrow
  • To Die For
  • FBI

Recent Comments

  • Bud:

    Are you ever going to put up Thursday's episode with Liev Schreiber?

  • alp-engin:

    When will that maintenance be over? Please...

  • mentalityx:

    Rad bloke

  • DownloadHostInspector:

    so far these RMTeam uploads always have a working link. DownloadHostInspector approved!

  • DownloadHostInspector:

    ah yes, this upload has a host that works. clicknupload. DownloadHostInspector approved!

  • DownloadHostInspector: Why are all the download hosts trash? none of them let you download it
  • Qua4ratic:

    clicknupload link plz

  • ppoo:

    Please, can you add "Real Time with Bill Maher S22E11" ??

  • theahtisham:

    Kindly upload Ep. 3 and 4 as well.

Archives