Sign Up   |   Sign In  
Hundreds of BeaversBar RescueThe 100th: Billy Joel at Madison Square Garden - The Greatest Arena Run of All TimeFull SwingFamily GuyAbba: How They Won EurovisionThe SympathizerTrackerDune: Part TwoModel HouseThe Great NorthKurt Cobain: Moments That Shook MusicWhen Calls the HeartSullivan's CrossingBeacon 23The Batman vs. DraculaThe ChannelThere's Still TomorrowFalloutShogunS.W.A.T.Trinket BoxThe Taste of ThingsTo Die ForFBI

Announcements

03/30

2024

No

Comments

Renegade Nell S01E03 A Private Joke With the Queen 720p DSNP WEB-DL DDP5 1 H 264-NTb
[RR/NF/CU]
Size: 1GB mkv H264 (HIGH) / EAC3  HD  1280x720

Renegade Nell
File Information
[img]http://lookpic.com/cdn/i2/t/0330202418234164-1.jpg[/img]
[img]http://lookpic.com/cdn/i2/t/0330202418234164-2.jpg[/img]
[img]http://lookpic.com/cdn/i2/t/0330202418234164-3.jpg[/img]

General
Unique ID                                : 142244062420072760561683013177871362087 (0x6B0335BD7CFAE3E8C27175E1F912E827)
Complete name                            : Renegade Nell S01E03 A Private Joke With the Queen 720p DSNP WEB-DL DDP5 1 H 264-NTb.mkv
Format                                   : Matroska
Format version                           : Version 4
File size                                : 1.03 GiB
Duration                                 : 37 min 58 s
Overall bit rate mode                    : Variable
Overall bit rate                         : 3 891 kb/s
Frame rate                               : 23.976 FPS
Writing application                      : mkvmerge v80.0 ('Roundabout') 64-bit
Writing library                          : libebml v1.4.4 + libmatroska v1.7.1

Video
ID                                       : 1
Format                                   : AVC
Format/Info                              : Advanced Video Codec
Format profile                           : [email protected]
Format settings                          : CABAC / 4 Ref Frames
Format settings, CABAC                   : Yes
Format settings, Reference frames        : 4 frames
Codec ID                                 : V_MPEG4/ISO/AVC
Duration                                 : 37 min 58 s
Bit rate mode                            : Variable
Bit rate                                 : 3 119 kb/s
Maximum bit rate                         : 6 375 kb/s
Width                                    : 1 280 pixels
Height                                   : 720 pixels
Display aspect ratio                     : 16:9
Frame rate mode                          : Constant
Frame rate                               : 23.976 (24000/1001) FPS
Color space                              : YUV
Chroma subsampling                       : 4:2:0
Bit depth                                : 8 bits
Scan type                                : Progressive
Bits/(Pixel*Frame)                       : 0.141
Time code of first frame                 : 00:00:00:0000000000
Stream size                              : 847 MiB (80%)
Default                                  : Yes
Forced                                   : No
Color range                              : Limited
Color primaries                          : BT.709
Transfer characteristics                 : BT.709
Matrix coefficients                      : BT.709

Audio
ID                                       : 2
Format                                   : E-AC-3 JOC
Format/Info                              : Enhanced AC-3 with Joint Object Coding
Commercial name                          : Dolby Digital Plus with Dolby Atmos
Codec ID                                 : A_EAC3
Duration                                 : 37 min 58 s
Bit rate mode                            : Constant
Bit rate                                 : 768 kb/s
Channel(s)                               : 6 channels
Channel layout                           : L R C LFE Ls Rs
Sampling rate                            : 48.0 kHz
Frame rate                               : 31.250 FPS (1536 SPF)
Compression mode                         : Lossy
Stream size                              : 209 MiB (20%)
Language                                 : English
Service kind                             : Complete Main
Default                                  : Yes
Forced                                   : No
Complexity index                         : 16
Number of dynamic objects                : 15
Bed channel count                        : 1 channel
Bed channel configuration                : LFE

Text #1
ID                                       : 3
Format                                   : UTF-8
Codec ID                                 : S_TEXT/UTF8
Codec ID/Info                            : UTF-8 Plain Text
Duration                                 : 36 min 24 s
Bit rate                                 : 52 b/s
Frame rate                               : 0.205 FPS
Count of elements                        : 448
Stream size                              : 14.0 KiB (0%)
Language                                 : English (GB)
Default                                  : No
Forced                                   : No

Text #2
ID                                       : 4
Format                                   : UTF-8
Codec ID                                 : S_TEXT/UTF8
Codec ID/Info                            : UTF-8 Plain Text
Duration                                 : 36 min 30 s
Bit rate                                 : 66 b/s
Frame rate                               : 0.273 FPS
Count of elements                        : 597
Stream size                              : 17.7 KiB (0%)
Title                                    : SDH
Language                                 : English (GB)
Default                                  : No
Forced                                   : No

Text #3
ID                                       : 5
Format                                   : UTF-8
Codec ID                                 : S_TEXT/UTF8
Codec ID/Info                            : UTF-8 Plain Text
Duration                                 : 37 min 51 s
Bit rate                                 : 46 b/s
Frame rate                               : 0.188 FPS
Count of elements                        : 426
Stream size                              : 12.8 KiB (0%)
Language                                 : Czech
Default                                  : No
Forced                                   : No

Text #4
ID                                       : 6
Format                                   : UTF-8
Codec ID                                 : S_TEXT/UTF8
Codec ID/Info                            : UTF-8 Plain Text
Duration                                 : 37 min 51 s
Bit rate                                 : 45 b/s
Frame rate                               : 0.187 FPS
Count of elements                        : 424
Stream size                              : 12.6 KiB (0%)
Language                                 : Danish
Default                                  : No
Forced                                   : No

Text #5
ID                                       : 7
Format                                   : UTF-8
Codec ID                                 : S_TEXT/UTF8
Codec ID/Info                            : UTF-8 Plain Text
Duration                                 : 37 min 51 s
Bit rate                                 : 47 b/s
Frame rate                               : 0.187 FPS
Count of elements                        : 424
Stream size                              : 13.3 KiB (0%)
Language                                 : German
Default                                  : No
Forced                                   : No

Text #6
ID                                       : 8
Format                                   : UTF-8
Codec ID                                 : S_TEXT/UTF8
Codec ID/Info                            : UTF-8 Plain Text
Duration                                 : 37 min 8 s
Bit rate                                 : 84 b/s
Frame rate                               : 0.190 FPS
Count of elements                        : 423
Stream size                              : 23.1 KiB (0%)
Language                                 : Greek
Default                                  : No
Forced                                   : No

Text #7
ID                                       : 9
Format                                   : UTF-8
Codec ID                                 : S_TEXT/UTF8
Codec ID/Info                            : UTF-8 Plain Text
Duration                                 : 37 min 56 s
Bit rate                                 : 48 b/s
Frame rate                               : 0.188 FPS
Count of elements                        : 427
Stream size                              : 13.4 KiB (0%)
Title                                    : Spanish (Latin America)
Language                                 : Spanish (Latin America)
Default                                  : No
Forced                                   : No

Text #8
ID                                       : 10
Format                                   : UTF-8
Codec ID                                 : S_TEXT/UTF8
Codec ID/Info                            : UTF-8 Plain Text
Duration                                 : 37 min 51 s
Bit rate                                 : 46 b/s
Frame rate                               : 0.187 FPS
Count of elements                        : 424
Stream size                              : 12.9 KiB (0%)
Title                                    : Spanish (Spain)
Language                                 : Spanish (ES)
Default                                  : No
Forced                                   : No

Text #9
ID                                       : 11
Format                                   : UTF-8
Codec ID                                 : S_TEXT/UTF8
Codec ID/Info                            : UTF-8 Plain Text
Duration                                 : 37 min 51 s
Bit rate                                 : 46 b/s
Frame rate                               : 0.187 FPS
Count of elements                        : 424
Stream size                              : 13.0 KiB (0%)
Language                                 : Finnish
Default                                  : No
Forced                                   : No

Text #10
ID                                       : 12
Format                                   : UTF-8
Codec ID                                 : S_TEXT/UTF8
Codec ID/Info                            : UTF-8 Plain Text
Duration                                 : 37 min 51 s
Bit rate                                 : 48 b/s
Frame rate                               : 0.188 FPS
Count of elements                        : 427
Stream size                              : 13.5 KiB (0%)
Language                                 : French (FR)
Default                                  : No
Forced                                   : No

Text #11
ID                                       : 13
Format                                   : UTF-8
Codec ID                                 : S_TEXT/UTF8
Codec ID/Info                            : UTF-8 Plain Text
Duration                                 : 37 min 51 s
Bit rate                                 : 47 b/s
Frame rate                               : 0.187 FPS
Count of elements                        : 425
Stream size                              : 13.3 KiB (0%)
Language                                 : Hungarian
Default                                  : No
Forced                                   : No

Text #12
ID                                       : 14
Format                                   : UTF-8
Codec ID                                 : S_TEXT/UTF8
Codec ID/Info                            : UTF-8 Plain Text
Duration                                 : 37 min 56 s
Bit rate                                 : 47 b/s
Frame rate                               : 0.186 FPS
Count of elements                        : 424
Stream size                              : 13.1 KiB (0%)
Language                                 : Italian
Default                                  : No
Forced                                   : No

Text #13
ID                                       : 15
Format                                   : UTF-8
Codec ID                                 : S_TEXT/UTF8
Codec ID/Info                            : UTF-8 Plain Text
Duration                                 : 37 min 52 s
Bit rate                                 : 44 b/s
Frame rate                               : 0.188 FPS
Count of elements                        : 428
Stream size                              : 12.2 KiB (0%)
Language                                 : Japanese
Default                                  : No
Forced                                   : No

Text #14
ID                                       : 16
Format                                   : UTF-8
Codec ID                                 : S_TEXT/UTF8
Codec ID/Info                            : UTF-8 Plain Text
Duration                                 : 37 min 51 s
Bit rate                                 : 54 b/s
Frame rate                               : 0.191 FPS
Count of elements                        : 434
Stream size                              : 15.1 KiB (0%)
Language                                 : Korean
Default                                  : No
Forced                                   : No

Text #15
ID                                       : 17
Format                                   : UTF-8
Codec ID                                 : S_TEXT/UTF8
Codec ID/Info                            : UTF-8 Plain Text
Duration                                 : 37 min 51 s
Bit rate                                 : 46 b/s
Frame rate                               : 0.187 FPS
Count of elements                        : 425
Stream size                              : 12.8 KiB (0%)
Language                                 : Dutch
Default                                  : No
Forced                                   : No

Text #16
ID                                       : 18
Format                                   : UTF-8
Codec ID                                 : S_TEXT/UTF8
Codec ID/Info                            : UTF-8 Plain Text
Duration                                 : 37 min 51 s
Bit rate                                 : 46 b/s
Frame rate                               : 0.187 FPS
Count of elements                        : 425
Stream size                              : 12.8 KiB (0%)
Language                                 : Norwegian
Default                                  : No
Forced                                   : No

Text #17
ID                                       : 19
Format                                   : UTF-8
Codec ID                                 : S_TEXT/UTF8
Codec ID/Info                            : UTF-8 Plain Text
Duration                                 : 37 min 51 s
Bit rate                                 : 41 b/s
Frame rate                               : 0.188 FPS
Count of elements                        : 426
Stream size                              : 11.6 KiB (0%)
Language                                 : Polish
Default                                  : No
Forced                                   : No

Text #18
ID                                       : 20
Format                                   : UTF-8
Codec ID                                 : S_TEXT/UTF8
Codec ID/Info                            : UTF-8 Plain Text
Duration                                 : 37 min 51 s
Bit rate                                 : 46 b/s
Frame rate                               : 0.188 FPS
Count of elements                        : 428
Stream size                              : 12.8 KiB (0%)
Title                                    : Portuguese (Brazil)
Language                                 : Portuguese (BR)
Default                                  : No
Forced                                   : No

Text #19
ID                                       : 21
Format                                   : UTF-8
Codec ID                                 : S_TEXT/UTF8
Codec ID/Info                            : UTF-8 Plain Text
Duration                                 : 37 min 8 s
Bit rate                                 : 48 b/s
Frame rate                               : 0.190 FPS
Count of elements                        : 423
Stream size                              : 13.1 KiB (0%)
Title                                    : Portuguese (Portugal)
Language                                 : Portuguese (PT)
Default                                  : No
Forced                                   : No

Text #20
ID                                       : 22
Format                                   : UTF-8
Codec ID                                 : S_TEXT/UTF8
Codec ID/Info                            : UTF-8 Plain Text
Duration                                 : 37 min 51 s
Bit rate                                 : 47 b/s
Frame rate                               : 0.188 FPS
Count of elements                        : 426
Stream size                              : 13.1 KiB (0%)
Language                                 : Romanian
Default                                  : No
Forced                                   : No

Text #21
ID                                       : 23
Format                                   : UTF-8
Codec ID                                 : S_TEXT/UTF8
Codec ID/Info                            : UTF-8 Plain Text
Duration                                 : 37 min 51 s
Bit rate                                 : 47 b/s
Frame rate                               : 0.188 FPS
Count of elements                        : 426
Stream size                              : 13.3 KiB (0%)
Language                                 : Slovak
Default                                  : No
Forced                                   : No

Text #22
ID                                       : 24
Format                                   : UTF-8
Codec ID                                 : S_TEXT/UTF8
Codec ID/Info                            : UTF-8 Plain Text
Duration                                 : 37 min 8 s
Bit rate                                 : 46 b/s
Frame rate                               : 0.190 FPS
Count of elements                        : 424
Stream size                              : 12.8 KiB (0%)
Language                                 : Swedish
Default                                  : No
Forced                                   : No

Text #23
ID                                       : 25
Format                                   : UTF-8
Codec ID                                 : S_TEXT/UTF8
Codec ID/Info                            : UTF-8 Plain Text
Duration                                 : 37 min 8 s
Bit rate                                 : 47 b/s
Frame rate                               : 0.191 FPS
Count of elements                        : 425
Stream size                              : 13.0 KiB (0%)
Language                                 : Turkish
Default                                  : No
Forced                                   : No

Text #24
ID                                       : 26
Format                                   : UTF-8
Codec ID                                 : S_TEXT/UTF8
Codec ID/Info                            : UTF-8 Plain Text
Duration                                 : 37 min 56 s
Bit rate                                 : 42 b/s
Frame rate                               : 0.193 FPS
Count of elements                        : 440
Stream size                              : 11.7 KiB (0%)
Language                                 : Chinese (Traditional)
Default                                  : No
Forced                                   : No



Download
File Container: MKV
Video/Audio Codec: H264 (HIGH) EAC3
Video Resolution: 1280x720
Please Login to post a comment.
If you don't have any account, please Register.
  • Subscribe my Feeds
  • Facebook
Encoding Queue:  x264  x265

Latest Episodes

Popular Movies and TV Shows

  • Hundreds of Beavers
  • Bar Rescue
  • The 100th: Billy Joel at Madison Square Garden - The Greatest Arena Run of All Time
  • Full Swing
  • Family Guy
  • Abba: How They Won Eurovision
  • The Sympathizer
  • Tracker
  • Dune: Part Two
  • Model House
  • The Great North
  • Kurt Cobain: Moments That Shook Music
  • When Calls the Heart
  • Sullivan's Crossing
  • Beacon 23
  • The Batman vs. Dracula
  • The Channel
  • There's Still Tomorrow
  • Fallout
  • Shogun
  • S.W.A.T.
  • Trinket Box
  • The Taste of Things
  • To Die For
  • FBI

Recent Comments

  • Bud:

    Are you ever going to put up Thursday's episode with Liev Schreiber?

  • alp-engin:

    When will that maintenance be over? Please...

  • mentalityx:

    Rad bloke

  • DownloadHostInspector:

    so far these RMTeam uploads always have a working link. DownloadHostInspector approved!

  • DownloadHostInspector:

    ah yes, this upload has a host that works. clicknupload. DownloadHostInspector approved!

  • DownloadHostInspector: Why are all the download hosts trash? none of them let you download it
  • Qua4ratic:

    clicknupload link plz

  • ppoo:

    Please, can you add "Real Time with Bill Maher S22E11" ??

  • theahtisham:

    Kindly upload Ep. 3 and 4 as well.

Archives