Sign Up   |   Sign In  
ParishSaturday Night LiveWonderful WorldSin CityNorth Korea: Inside the Mind of a DictatorBeacon 23Immoral WomenA Gentleman in MoscowRiddle of FireWillow48 HoursGrey's AnatomyBlue BloodsS.W.A.T.Pacific Rim: UprisingScrambledThe War on ChildrenFalloutFire CountryStar Trek: DiscoveryT2 TrainspottingWhiplashDamagedSugarYoung Sheldon

Announcements

04/02

2024

No

Comments

The Leftovers S03E01 1080p AMZN WEBRip DDP 5 1 x264-NTb
[RR/NF]
Size: 7.4GB mkv H264 (HIGH) / EAC3  HD  1920x1080

The Leftovers
File Information
[img]http://lookpic.com/cdn/i2/t/0402202405301634-1.jpg[/img]
[img]http://lookpic.com/cdn/i2/t/0402202405301634-2.jpg[/img]
[img]http://lookpic.com/cdn/i2/t/0402202405301634-3.jpg[/img]

General
Unique ID                                : 236298029464745577431980089023827344684 (0xB1C55856CED9A10493429B132278FD2C)
Complete name                            : The Leftovers S03E01 1080p AMZN WEBRip DDP 5 1 x264-NTb.mkv
Format                                   : Matroska
Format version                           : Version 4
File size                                : 7.41 GiB
Duration                                 : 1 h 3 min
Overall bit rate                         : 16.7 Mb/s
Frame rate                               : 23.976 FPS
Encoded date                             : 2017-04-17 12:14:28 UTC
Writing application                      : mkvmerge v7.6.0 ('Garden of Dreams') 64bit built on Feb  8 2015 13:04:34
Writing library                          : libebml v1.3.1 + libmatroska v1.4.2

Video
ID                                       : 1
Format                                   : AVC
Format/Info                              : Advanced Video Codec
Format profile                           : [email protected]
Format settings                          : CABAC / 4 Ref Frames
Format settings, CABAC                   : Yes
Format settings, Reference frames        : 4 frames
Codec ID                                 : V_MPEG4/ISO/AVC
Duration                                 : 1 h 3 min
Bit rate                                 : 15.7 Mb/s
Width                                    : 1 920 pixels
Height                                   : 1 080 pixels
Display aspect ratio                     : 16:9
Frame rate mode                          : Constant
Frame rate                               : 23.976 (24000/1001) FPS
Color space                              : YUV
Chroma subsampling                       : 4:2:0
Bit depth                                : 8 bits
Scan type                                : Progressive
Bits/(Pixel*Frame)                       : 0.316
Stream size                              : 6.97 GiB (94%)
Writing library                          : x264 core 144 r2525 40bb568
 Encoding settings                        : cabac=1 / ref=4 / deblock=1:-3:-3 / analyse=0x3:0x133 / me=umh / subme=10 / psy=1 / psy_rd=1.00:0.00 / mixed_ref=1 / me_range=48 / chroma_me=1 / trellis=2 / 8x8dct=1 / cqm=0 / deadz / fast pskip=1 / chroma_qp_offset=-2 / threads=12 / lookahead_threads=2 / sliced_threads=0 / nr=0 / decimate=1 / interlaced=0 / bluray_compat=0 / c / bframes=8 / b_pyramid=2 / b_adapt=2 / b_bias=0 / direct=3 / weightb=1 / open_gop=0 / weightp=2 / keyint=250 / keyint_min=23 / scenecut=40 / intra_refresh=0 / rc=crf / mbtree=0 / crf=17.0 / qcomp=0.60 / qpmin=0 / qpmax=69 / qpstep=4 / ip_ratio=1.30 / pb_ratio=1.20 / aq=3:0.80
Language                                 : English
Default                                  : Yes
Forced                                   : No

Audio
ID                                       : 2
Format                                   : E-AC-3
Format/Info                              : Enhanced AC-3
Commercial name                          : Dolby Digital Plus
Codec ID                                 : A_EAC3
Duration                                 : 1 h 3 min
Bit rate mode                            : Constant
Bit rate                                 : 640 kb/s
Channel(s)                               : 6 channels
Channel layout                           : L R C LFE Ls Rs
Sampling rate                            : 48.0 kHz
Frame rate                               : 31.250 FPS (1536 SPF)
Compression mode                         : Lossy
Stream size                              : 291 MiB (4%)
Language                                 : English
Service kind                             : Complete Main
Default                                  : Yes
Forced                                   : No

Text
ID                                       : 3
Format                                   : UTF-8
Codec ID                                 : S_TEXT/UTF8
Codec ID/Info                            : UTF-8 Plain Text
Language                                 : English
Default                                  : No
Forced                                   : No



Download
File Container: MKV
Video/Audio Codec: H264 (HIGH) EAC3
Video Resolution: 1920x1080
Please Login to post a comment.
If you don't have any account, please Register.
  • Subscribe my Feeds
  • Facebook
Encoding Queue:  x264  x265

Latest Episodes

Popular Movies and TV Shows

  • Parish
  • Saturday Night Live
  • Wonderful World
  • Sin City
  • North Korea: Inside the Mind of a Dictator
  • Beacon 23
  • Immoral Women
  • A Gentleman in Moscow
  • Riddle of Fire
  • Willow
  • 48 Hours
  • Grey's Anatomy
  • Blue Bloods
  • S.W.A.T.
  • Pacific Rim: Uprising
  • Scrambled
  • The War on Children
  • Fallout
  • Fire Country
  • Star Trek: Discovery
  • T2 Trainspotting
  • Whiplash
  • Damaged
  • Sugar
  • Young Sheldon

Recent Comments

  • DownloadHostInspector:

    so far these RMTeam uploads always have a working link. DownloadHostInspector approved!

  • DownloadHostInspector:

    ah yes, this upload has a host that works. clicknupload. DownloadHostInspector approved!

  • DownloadHostInspector: Why are all the download hosts trash? none of them let you download it
  • Qua4ratic:

    clicknupload link plz

  • ppoo:

    Please, can you add "Real Time with Bill Maher S22E11" ??

  • theahtisham:

    Kindly upload Ep. 3 and 4 as well.

  • Kudzu: Update on sound issue, File's codec info says stereo but is only a the left channel If I switch i...
  • Admin:

    kang
    Getting error while encoding, sorry

  • rambaldi70:

    sorry this release ok.
    but descripton is bad
    (Duration: 2h56m7s)

Archives