Sign Up   |   Sign In  
The 100th: Billy Joel at Madison Square Garden - The Greatest Arena Run of All TimeFamily GuyAvoidanceHailey's on It!Still: A Michael J. Fox MovieAliensThe SympathizerDune: Part TwoHundreds of BeaversModel HouseFull SwingSullivan's CrossingTrackerThe Great NorthWhen Calls the HeartAbba: How They Won EurovisionThe Batman vs. DraculaKurt Cobain: Moments That Shook MusicFalloutBeacon 23The ChannelShogunTrinket BoxThere's Still TomorrowFBI

Announcements

04/03

2024

No

Comments

The New Look S01E01 Just You Wait and See 720p ATVP WEB-DL DDP5 1 Atmos H 264-FLUX
[RR/NF/CU]
Size: 1.6GB mkv H264 (HIGH) / EAC3  HD  1280x720

The New Look
File Information
[img]http://lookpic.com/cdn/i2/t/0403202407494933-1.jpg[/img]
[img]http://lookpic.com/cdn/i2/t/0403202407494933-2.jpg[/img]
[img]http://lookpic.com/cdn/i2/t/0403202407494933-3.jpg[/img]

General
Unique ID                                : 118493429818450718029602660030691443150 (0x59250124F2FF4283035F78ECC6C481CE)
Complete name                            : The New Look S01E01 Just You Wait and See 720p ATVP WEB-DL DDP5 1 Atmos H 264-FLUX.mkv
Format                                   : Matroska
Format version                           : Version 4
File size                                : 1.58 GiB
Duration                                 : 1 h 1 min
Overall bit rate                         : 3 654 kb/s
Frame rate                               : 23.976 FPS
Writing application                      : mkvmerge v82.0 ('I'm The President') 64-bit
Writing library                          : libebml v1.4.5 + libmatroska v1.7.1

Video
ID                                       : 1
Format                                   : AVC
Format/Info                              : Advanced Video Codec
Format profile                           : [email protected]
Format settings                          : CABAC / 5 Ref Frames
Format settings, CABAC                   : Yes
Format settings, Reference frames        : 5 frames
Codec ID                                 : V_MPEG4/ISO/AVC
Duration                                 : 1 h 1 min
Bit rate                                 : 2 878 kb/s
Width                                    : 1 280 pixels
Height                                   : 720 pixels
Display aspect ratio                     : 16:9
Frame rate mode                          : Constant
Frame rate                               : 23.976 (24000/1001) FPS
Color space                              : YUV
Chroma subsampling                       : 4:2:0
Bit depth                                : 8 bits
Scan type                                : Progressive
Bits/(Pixel*Frame)                       : 0.130
Stream size                              : 1.24 GiB (79%)
Language                                 : English
Default                                  : Yes
Forced                                   : No
Color range                              : Limited
Color primaries                          : BT.709
Transfer characteristics                 : BT.709
Matrix coefficients                      : BT.709

Audio
ID                                       : 2
Format                                   : E-AC-3 JOC
Format/Info                              : Enhanced AC-3 with Joint Object Coding
Commercial name                          : Dolby Digital Plus with Dolby Atmos
Codec ID                                 : A_EAC3
Duration                                 : 1 h 1 min
Bit rate mode                            : Constant
Bit rate                                 : 768 kb/s
Channel(s)                               : 6 channels
Channel layout                           : L R C LFE Ls Rs
Sampling rate                            : 48.0 kHz
Frame rate                               : 31.250 FPS (1536 SPF)
Compression mode                         : Lossy
Stream size                              : 340 MiB (21%)
Language                                 : English
Service kind                             : Complete Main
Default                                  : Yes
Forced                                   : No
Complexity index                         : 16
Number of dynamic objects                : 15
Bed channel count                        : 1 channel
Bed channel configuration                : LFE

Text #1
ID                                       : 3
Format                                   : UTF-8
Codec ID                                 : S_TEXT/UTF8
Codec ID/Info                            : UTF-8 Plain Text
Duration                                 : 58 min 14 s
Bit rate                                 : 63 b/s
Frame rate                               : 0.231 FPS
Count of elements                        : 807
Stream size                              : 27.0 KiB (0%)
Language                                 : English
Default                                  : No
Forced                                   : No

Text #2
ID                                       : 4
Format                                   : UTF-8
Codec ID                                 : S_TEXT/UTF8
Codec ID/Info                            : UTF-8 Plain Text
Duration                                 : 58 min 39 s
Bit rate                                 : 76 b/s
Frame rate                               : 0.258 FPS
Count of elements                        : 908
Stream size                              : 32.8 KiB (0%)
Title                                    : SDH
Language                                 : English
Default                                  : No
Forced                                   : No

Text #3
ID                                       : 5
Format                                   : UTF-8
Codec ID                                 : S_TEXT/UTF8
Codec ID/Info                            : UTF-8 Plain Text
Duration                                 : 1 h 0 min
Bit rate                                 : 99 b/s
Frame rate                               : 0.224 FPS
Count of elements                        : 814
Stream size                              : 43.9 KiB (0%)
Language                                 : Arabic
Default                                  : No
Forced                                   : No

Text #4
ID                                       : 6
Format                                   : UTF-8
Codec ID                                 : S_TEXT/UTF8
Codec ID/Info                            : UTF-8 Plain Text
Duration                                 : 1 h 0 min
Bit rate                                 : 91 b/s
Frame rate                               : 0.185 FPS
Count of elements                        : 673
Stream size                              : 40.4 KiB (0%)
Language                                 : Bulgarian
Default                                  : No
Forced                                   : No

Text #5
ID                                       : 7
Format                                   : UTF-8
Codec ID                                 : S_TEXT/UTF8
Codec ID/Info                            : UTF-8 Plain Text
Duration                                 : 1 h 0 min
Bit rate                                 : 56 b/s
Frame rate                               : 0.227 FPS
Count of elements                        : 824
Stream size                              : 24.9 KiB (0%)
Title                                    : Simplified
Language                                 : Chinese (Simplified)
Default                                  : No
Forced                                   : No

Text #6
ID                                       : 8
Format                                   : UTF-8
Codec ID                                 : S_TEXT/UTF8
Codec ID/Info                            : UTF-8 Plain Text
Duration                                 : 1 h 0 min
Bit rate                                 : 53 b/s
Frame rate                               : 0.227 FPS
Count of elements                        : 826
Stream size                              : 23.7 KiB (0%)
Title                                    : Traditional
Language                                 : Chinese (Traditional)
Default                                  : No
Forced                                   : No

Text #7
ID                                       : 9
Format                                   : UTF-8
Codec ID                                 : S_TEXT/UTF8
Codec ID/Info                            : UTF-8 Plain Text
Duration                                 : 1 h 0 min
Bit rate                                 : 57 b/s
Frame rate                               : 0.217 FPS
Count of elements                        : 789
Stream size                              : 25.4 KiB (0%)
Language                                 : Czech
Default                                  : No
Forced                                   : No

Text #8
ID                                       : 10
Format                                   : UTF-8
Codec ID                                 : S_TEXT/UTF8
Codec ID/Info                            : UTF-8 Plain Text
Duration                                 : 1 h 0 min
Bit rate                                 : 63 b/s
Frame rate                               : 0.218 FPS
Count of elements                        : 790
Stream size                              : 28.0 KiB (0%)
Language                                 : Danish
Default                                  : No
Forced                                   : No

Text #9
ID                                       : 11
Format                                   : UTF-8
Codec ID                                 : S_TEXT/UTF8
Codec ID/Info                            : UTF-8 Plain Text
Duration                                 : 1 h 0 min
Bit rate                                 : 62 b/s
Frame rate                               : 0.230 FPS
Count of elements                        : 834
Stream size                              : 27.6 KiB (0%)
Language                                 : German
Default                                  : No
Forced                                   : No

Text #10
ID                                       : 12
Format                                   : UTF-8
Codec ID                                 : S_TEXT/UTF8
Codec ID/Info                            : UTF-8 Plain Text
Duration                                 : 1 h 0 min
Bit rate                                 : 104 b/s
Frame rate                               : 0.220 FPS
Count of elements                        : 799
Stream size                              : 46.2 KiB (0%)
Language                                 : Greek
Default                                  : No
Forced                                   : No

Text #11
ID                                       : 13
Format                                   : UTF-8
Codec ID                                 : S_TEXT/UTF8
Codec ID/Info                            : UTF-8 Plain Text
Duration                                 : 1 h 0 min
Bit rate                                 : 61 b/s
Frame rate                               : 0.225 FPS
Count of elements                        : 818
Stream size                              : 27.1 KiB (0%)
Title                                    : Latin American
Language                                 : Spanish (Latin America)
Default                                  : No
Forced                                   : No

Text #12
ID                                       : 14
Format                                   : UTF-8
Codec ID                                 : S_TEXT/UTF8
Codec ID/Info                            : UTF-8 Plain Text
Duration                                 : 1 h 0 min
Bit rate                                 : 65 b/s
Frame rate                               : 0.228 FPS
Count of elements                        : 832
Stream size                              : 29.1 KiB (0%)
Language                                 : Spanish (ES)
Default                                  : No
Forced                                   : No

Text #13
ID                                       : 15
Format                                   : UTF-8
Codec ID                                 : S_TEXT/UTF8
Codec ID/Info                            : UTF-8 Plain Text
Duration                                 : 1 h 0 min
Bit rate                                 : 58 b/s
Frame rate                               : 0.221 FPS
Count of elements                        : 804
Stream size                              : 25.8 KiB (0%)
Language                                 : Estonian
Default                                  : No
Forced                                   : No

Text #14
ID                                       : 16
Format                                   : UTF-8
Codec ID                                 : S_TEXT/UTF8
Codec ID/Info                            : UTF-8 Plain Text
Duration                                 : 1 h 0 min
Bit rate                                 : 58 b/s
Frame rate                               : 0.210 FPS
Count of elements                        : 763
Stream size                              : 26.1 KiB (0%)
Language                                 : Finnish
Default                                  : No
Forced                                   : No

Text #15
ID                                       : 17
Format                                   : UTF-8
Codec ID                                 : S_TEXT/UTF8
Codec ID/Info                            : UTF-8 Plain Text
Duration                                 : 1 h 0 min
Bit rate                                 : 60 b/s
Frame rate                               : 0.243 FPS
Count of elements                        : 884
Stream size                              : 27.0 KiB (0%)
Title                                    : Canadian
Language                                 : French (CA)
Default                                  : No
Forced                                   : No

Text #16
ID                                       : 18
Format                                   : UTF-8
Codec ID                                 : S_TEXT/UTF8
Codec ID/Info                            : UTF-8 Plain Text
Duration                                 : 1 h 0 min
Bit rate                                 : 60 b/s
Frame rate                               : 0.243 FPS
Count of elements                        : 882
Stream size                              : 27.0 KiB (0%)
Language                                 : French (FR)
Default                                  : No
Forced                                   : No

Text #17
ID                                       : 19
Format                                   : UTF-8
Codec ID                                 : S_TEXT/UTF8
Codec ID/Info                            : UTF-8 Plain Text
Duration                                 : 1 h 0 min
Bit rate                                 : 89 b/s
Frame rate                               : 0.227 FPS
Count of elements                        : 823
Stream size                              : 39.9 KiB (0%)
Language                                 : Hebrew
Default                                  : No
Forced                                   : No

Text #18
ID                                       : 20
Format                                   : UTF-8
Codec ID                                 : S_TEXT/UTF8
Codec ID/Info                            : UTF-8 Plain Text
Duration                                 : 1 h 0 min
Bit rate                                 : 165 b/s
Frame rate                               : 0.226 FPS
Count of elements                        : 825
Stream size                              : 73.8 KiB (0%)
Language                                 : Hindi
Default                                  : No
Forced                                   : No

Text #19
ID                                       : 21
Format                                   : UTF-8
Codec ID                                 : S_TEXT/UTF8
Codec ID/Info                            : UTF-8 Plain Text
Duration                                 : 1 h 0 min
Bit rate                                 : 58 b/s
Frame rate                               : 0.224 FPS
Count of elements                        : 813
Stream size                              : 25.9 KiB (0%)
Language                                 : Hungarian
Default                                  : No
Forced                                   : No

Text #20
ID                                       : 22
Format                                   : UTF-8
Codec ID                                 : S_TEXT/UTF8
Codec ID/Info                            : UTF-8 Plain Text
Duration                                 : 1 h 0 min
Bit rate                                 : 64 b/s
Frame rate                               : 0.225 FPS
Count of elements                        : 817
Stream size                              : 28.7 KiB (0%)
Language                                 : Indonesian
Default                                  : No
Forced                                   : No

Text #21
ID                                       : 23
Format                                   : UTF-8
Codec ID                                 : S_TEXT/UTF8
Codec ID/Info                            : UTF-8 Plain Text
Duration                                 : 1 h 0 min
Bit rate                                 : 61 b/s
Frame rate                               : 0.223 FPS
Count of elements                        : 809
Stream size                              : 27.4 KiB (0%)
Language                                 : Italian
Default                                  : No
Forced                                   : No

Text #22
ID                                       : 24
Format                                   : UTF-8
Codec ID                                 : S_TEXT/UTF8
Codec ID/Info                            : UTF-8 Plain Text
Duration                                 : 1 h 0 min
Bit rate                                 : 52 b/s
Frame rate                               : 0.216 FPS
Count of elements                        : 786
Stream size                              : 23.3 KiB (0%)
Language                                 : Japanese
Default                                  : No
Forced                                   : No

Text #23
ID                                       : 25
Format                                   : UTF-8
Codec ID                                 : S_TEXT/UTF8
Codec ID/Info                            : UTF-8 Plain Text
Duration                                 : 1 h 0 min
Bit rate                                 : 71 b/s
Frame rate                               : 0.227 FPS
Count of elements                        : 827
Stream size                              : 31.8 KiB (0%)
Language                                 : Korean
Default                                  : No
Forced                                   : No

Text #24
ID                                       : 26
Format                                   : UTF-8
Codec ID                                 : S_TEXT/UTF8
Codec ID/Info                            : UTF-8 Plain Text
Duration                                 : 1 h 0 min
Bit rate                                 : 61 b/s
Frame rate                               : 0.227 FPS
Count of elements                        : 824
Stream size                              : 27.4 KiB (0%)
Language                                 : Lithuanian
Default                                  : No
Forced                                   : No

Text #25
ID                                       : 27
Format                                   : UTF-8
Codec ID                                 : S_TEXT/UTF8
Codec ID/Info                            : UTF-8 Plain Text
Duration                                 : 1 h 0 min
Bit rate                                 : 64 b/s
Frame rate                               : 0.220 FPS
Count of elements                        : 798
Stream size                              : 28.4 KiB (0%)
Language                                 : Latvian
Default                                  : No
Forced                                   : No

Text #26
ID                                       : 28
Format                                   : UTF-8
Codec ID                                 : S_TEXT/UTF8
Codec ID/Info                            : UTF-8 Plain Text
Duration                                 : 1 h 0 min
Bit rate                                 : 59 b/s
Frame rate                               : 0.223 FPS
Count of elements                        : 811
Stream size                              : 26.5 KiB (0%)
Language                                 : Malay
Default                                  : No
Forced                                   : No

Text #27
ID                                       : 29
Format                                   : UTF-8
Codec ID                                 : S_TEXT/UTF8
Codec ID/Info                            : UTF-8 Plain Text
Duration                                 : 1 h 0 min
Bit rate                                 : 58 b/s
Frame rate                               : 0.179 FPS
Count of elements                        : 650
Stream size                              : 25.7 KiB (0%)
Language                                 : Dutch
Default                                  : No
Forced                                   : No

Text #28
ID                                       : 30
Format                                   : UTF-8
Codec ID                                 : S_TEXT/UTF8
Codec ID/Info                            : UTF-8 Plain Text
Duration                                 : 1 h 0 min
Bit rate                                 : 57 b/s
Frame rate                               : 0.200 FPS
Count of elements                        : 727
Stream size                              : 25.5 KiB (0%)
Language                                 : Norwegian
Default                                  : No
Forced                                   : No

Text #29
ID                                       : 31
Format                                   : UTF-8
Codec ID                                 : S_TEXT/UTF8
Codec ID/Info                            : UTF-8 Plain Text
Duration                                 : 1 h 0 min
Bit rate                                 : 56 b/s
Frame rate                               : 0.211 FPS
Count of elements                        : 770
Stream size                              : 25.2 KiB (0%)
Language                                 : Polish
Default                                  : No
Forced                                   : No

Text #30
ID                                       : 32
Format                                   : UTF-8
Codec ID                                 : S_TEXT/UTF8
Codec ID/Info                            : UTF-8 Plain Text
Duration                                 : 1 h 0 min
Bit rate                                 : 61 b/s
Frame rate                               : 0.225 FPS
Count of elements                        : 817
Stream size                              : 27.1 KiB (0%)
Language                                 : Portuguese
Default                                  : No
Forced                                   : No

Text #31
ID                                       : 33
Format                                   : UTF-8
Codec ID                                 : S_TEXT/UTF8
Codec ID/Info                            : UTF-8 Plain Text
Duration                                 : 1 h 0 min
Bit rate                                 : 58 b/s
Frame rate                               : 0.216 FPS
Count of elements                        : 785
Stream size                              : 26.0 KiB (0%)
Title                                    : Brazilian
Language                                 : Portuguese (BR)
Default                                  : No
Forced                                   : No

Text #32
ID                                       : 34
Format                                   : UTF-8
Codec ID                                 : S_TEXT/UTF8
Codec ID/Info                            : UTF-8 Plain Text
Duration                                 : 1 h 0 min
Bit rate                                 : 91 b/s
Frame rate                               : 0.216 FPS
Count of elements                        : 786
Stream size                              : 40.5 KiB (0%)
Language                                 : Russian
Default                                  : No
Forced                                   : No

Text #33
ID                                       : 35
Format                                   : UTF-8
Codec ID                                 : S_TEXT/UTF8
Codec ID/Info                            : UTF-8 Plain Text
Duration                                 : 1 h 0 min
Bit rate                                 : 56 b/s
Frame rate                               : 0.224 FPS
Count of elements                        : 816
Stream size                              : 25.2 KiB (0%)
Language                                 : Slovak
Default                                  : No
Forced                                   : No

Text #34
ID                                       : 36
Format                                   : UTF-8
Codec ID                                 : S_TEXT/UTF8
Codec ID/Info                            : UTF-8 Plain Text
Duration                                 : 1 h 0 min
Bit rate                                 : 50 b/s
Frame rate                               : 0.184 FPS
Count of elements                        : 668
Stream size                              : 22.6 KiB (0%)
Language                                 : Slovenian
Default                                  : No
Forced                                   : No

Text #35
ID                                       : 37
Format                                   : UTF-8
Codec ID                                 : S_TEXT/UTF8
Codec ID/Info                            : UTF-8 Plain Text
Duration                                 : 1 h 0 min
Bit rate                                 : 63 b/s
Frame rate                               : 0.218 FPS
Count of elements                        : 793
Stream size                              : 28.0 KiB (0%)
Language                                 : Swedish
Default                                  : No
Forced                                   : No

Text #36
ID                                       : 38
Format                                   : UTF-8
Codec ID                                 : S_TEXT/UTF8
Codec ID/Info                            : UTF-8 Plain Text
Duration                                 : 1 h 0 min
Bit rate                                 : 185 b/s
Frame rate                               : 0.227 FPS
Count of elements                        : 823
Stream size                              : 82.3 KiB (0%)
Language                                 : Tamil
Default                                  : No
Forced                                   : No

Text #37
ID                                       : 39
Format                                   : UTF-8
Codec ID                                 : S_TEXT/UTF8
Codec ID/Info                            : UTF-8 Plain Text
Duration                                 : 1 h 0 min
Bit rate                                 : 187 b/s
Frame rate                               : 0.227 FPS
Count of elements                        : 823
Stream size                              : 82.9 KiB (0%)
Language                                 : Telugu
Default                                  : No
Forced                                   : No

Text #38
ID                                       : 40
Format                                   : UTF-8
Codec ID                                 : S_TEXT/UTF8
Codec ID/Info                            : UTF-8 Plain Text
Duration                                 : 1 h 0 min
Bit rate                                 : 153 b/s
Frame rate                               : 0.227 FPS
Count of elements                        : 824
Stream size                              : 68.2 KiB (0%)
Language                                 : Thai
Default                                  : No
Forced                                   : No

Text #39
ID                                       : 41
Format                                   : UTF-8
Codec ID                                 : S_TEXT/UTF8
Codec ID/Info                            : UTF-8 Plain Text
Duration                                 : 1 h 0 min
Bit rate                                 : 61 b/s
Frame rate                               : 0.224 FPS
Count of elements                        : 812
Stream size                              : 27.1 KiB (0%)
Language                                 : Turkish
Default                                  : No
Forced                                   : No

Text #40
ID                                       : 42
Format                                   : UTF-8
Codec ID                                 : S_TEXT/UTF8
Codec ID/Info                            : UTF-8 Plain Text
Duration                                 : 1 h 0 min
Bit rate                                 : 96 b/s
Frame rate                               : 0.227 FPS
Count of elements                        : 827
Stream size                              : 43.0 KiB (0%)
Language                                 : Ukrainian
Default                                  : No
Forced                                   : No

Text #41
ID                                       : 43
Format                                   : UTF-8
Codec ID                                 : S_TEXT/UTF8
Codec ID/Info                            : UTF-8 Plain Text
Duration                                 : 1 h 0 min
Bit rate                                 : 78 b/s
Frame rate                               : 0.225 FPS
Count of elements                        : 821
Stream size                              : 34.9 KiB (0%)
Language                                 : Vietnamese
Default                                  : No
Forced                                   : No

Text #42
ID                                       : 44
Format                                   : UTF-8
Codec ID                                 : S_TEXT/UTF8
Codec ID/Info                            : UTF-8 Plain Text
Duration                                 : 1 h 0 min
Bit rate                                 : 49 b/s
Frame rate                               : 0.227 FPS
Count of elements                        : 826
Stream size                              : 22.1 KiB (0%)
Title                                    : Traditional
Language                                 : Cantonese (Hant)
Default                                  : No
Forced                                   : No

Menu
00:00:00.000                             : en:Studio Logo
00:00:08.963                             : en:Main
01:00:25.291                             : en:Credits



Download
File Container: MKV
Video/Audio Codec: H264 (HIGH) EAC3
Video Resolution: 1280x720
Please Login to post a comment.
If you don't have any account, please Register.
  • Subscribe my Feeds
  • Facebook
Encoding Queue:  x264  x265

Latest Episodes

Popular Movies and TV Shows

  • The 100th: Billy Joel at Madison Square Garden - The Greatest Arena Run of All Time
  • Family Guy
  • Avoidance
  • Hailey's on It!
  • Still: A Michael J. Fox Movie
  • Aliens
  • The Sympathizer
  • Dune: Part Two
  • Hundreds of Beavers
  • Model House
  • Full Swing
  • Sullivan's Crossing
  • Tracker
  • The Great North
  • When Calls the Heart
  • Abba: How They Won Eurovision
  • The Batman vs. Dracula
  • Kurt Cobain: Moments That Shook Music
  • Fallout
  • Beacon 23
  • The Channel
  • Shogun
  • Trinket Box
  • There's Still Tomorrow
  • FBI

Recent Comments

  • Bud:

    Are you ever going to put up Thursday's episode with Liev Schreiber?

  • alp-engin:

    When will that maintenance be over? Please...

  • mentalityx:

    Rad bloke

  • DownloadHostInspector:

    so far these RMTeam uploads always have a working link. DownloadHostInspector approved!

  • DownloadHostInspector:

    ah yes, this upload has a host that works. clicknupload. DownloadHostInspector approved!

  • DownloadHostInspector: Why are all the download hosts trash? none of them let you download it
  • Qua4ratic:

    clicknupload link plz

  • ppoo:

    Please, can you add "Real Time with Bill Maher S22E11" ??

  • theahtisham:

    Kindly upload Ep. 3 and 4 as well.

Archives