Sign Up   |   Sign In  
The ChannelThis TownThe Bellboy and the PlaygirlsRoadkillYannickMatch of the Day 2ShogunA Very Royal Crisis: Countdown to AbdicationNinja KamuiFaster with Newbern and CottenOne for the RoadThe Ace and the ScoutBeacon 23ParishSaturday Night LiveFantastic Four: Rise of the Silver SurferImmoral WomenWillowFalloutGrey's AnatomyS.W.A.T.Riddle of FirePacific Rim: UprisingScrambledFBI

Announcements

04/03

2024

No

Comments

The New Look S01E10 What a Day This Has Been 720p ATVP WEB-DL DDP5 1 Atmos H 264-FLUX
[RR/NF/CU]
Size: 1.4GB mkv H264 (HIGH) / EAC3  HD  1280x720

The New Look
File Information
[img]http://lookpic.com/cdn/i2/t/0403202404341805-1.jpg[/img]
[img]http://lookpic.com/cdn/i2/t/0403202404341805-2.jpg[/img]
[img]http://lookpic.com/cdn/i2/t/0403202404341805-3.jpg[/img]

General
Unique ID                                : 160280515144519300904097499108410145728 (0x7894E78442564DEC30BA6466CE543BC0)
Complete name                            : The New Look S01E10 What a Day This Has Been 720p ATVP WEB-DL DDP5 1 Atmos H 264-FLUX.mkv
Format                                   : Matroska
Format version                           : Version 4
File size                                : 1.35 GiB
Duration                                 : 53 min 0 s
Overall bit rate                         : 3 649 kb/s
Frame rate                               : 23.976 FPS
Writing application                      : mkvmerge v81.0 ('Milliontown') 64-bit
Writing library                          : libebml v1.4.4 + libmatroska v1.7.1

Video
ID                                       : 1
Format                                   : AVC
Format/Info                              : Advanced Video Codec
Format profile                           : [email protected]
Format settings                          : CABAC / 5 Ref Frames
Format settings, CABAC                   : Yes
Format settings, Reference frames        : 5 frames
Codec ID                                 : V_MPEG4/ISO/AVC
Duration                                 : 53 min 0 s
Bit rate                                 : 2 874 kb/s
Width                                    : 1 280 pixels
Height                                   : 720 pixels
Display aspect ratio                     : 16:9
Frame rate mode                          : Constant
Frame rate                               : 23.976 (24000/1001) FPS
Color space                              : YUV
Chroma subsampling                       : 4:2:0
Bit depth                                : 8 bits
Scan type                                : Progressive
Bits/(Pixel*Frame)                       : 0.130
Stream size                              : 1.06 GiB (79%)
Language                                 : English
Default                                  : Yes
Forced                                   : No
Color range                              : Limited
Color primaries                          : BT.709
Transfer characteristics                 : BT.709
Matrix coefficients                      : BT.709

Audio
ID                                       : 2
Format                                   : E-AC-3 JOC
Format/Info                              : Enhanced AC-3 with Joint Object Coding
Commercial name                          : Dolby Digital Plus with Dolby Atmos
Codec ID                                 : A_EAC3
Duration                                 : 53 min 0 s
Bit rate mode                            : Constant
Bit rate                                 : 768 kb/s
Channel(s)                               : 6 channels
Channel layout                           : L R C LFE Ls Rs
Sampling rate                            : 48.0 kHz
Frame rate                               : 31.250 FPS (1536 SPF)
Compression mode                         : Lossy
Stream size                              : 291 MiB (21%)
Language                                 : English
Service kind                             : Complete Main
Default                                  : Yes
Forced                                   : No
Complexity index                         : 16
Number of dynamic objects                : 15
Bed channel count                        : 1 channel
Bed channel configuration                : LFE

Text #1
ID                                       : 3
Format                                   : UTF-8
Codec ID                                 : S_TEXT/UTF8
Codec ID/Info                            : UTF-8 Plain Text
Duration                                 : 50 min 21 s
Bit rate                                 : 60 b/s
Frame rate                               : 0.194 FPS
Count of elements                        : 585
Stream size                              : 22.2 KiB (0%)
Language                                 : English
Default                                  : No
Forced                                   : No

Text #2
ID                                       : 4
Format                                   : UTF-8
Codec ID                                 : S_TEXT/UTF8
Codec ID/Info                            : UTF-8 Plain Text
Duration                                 : 50 min 41 s
Bit rate                                 : 66 b/s
Frame rate                               : 0.212 FPS
Count of elements                        : 645
Stream size                              : 24.8 KiB (0%)
Title                                    : SDH
Language                                 : English
Default                                  : No
Forced                                   : No

Text #3
ID                                       : 5
Format                                   : UTF-8
Codec ID                                 : S_TEXT/UTF8
Codec ID/Info                            : UTF-8 Plain Text
Duration                                 : 52 min 46 s
Bit rate                                 : 88 b/s
Frame rate                               : 0.192 FPS
Count of elements                        : 608
Stream size                              : 34.1 KiB (0%)
Language                                 : Arabic
Default                                  : No
Forced                                   : No

Text #4
ID                                       : 6
Format                                   : UTF-8
Codec ID                                 : S_TEXT/UTF8
Codec ID/Info                            : UTF-8 Plain Text
Duration                                 : 52 min 46 s
Bit rate                                 : 80 b/s
Frame rate                               : 0.165 FPS
Count of elements                        : 524
Stream size                              : 31.2 KiB (0%)
Language                                 : Bulgarian
Default                                  : No
Forced                                   : No

Text #5
ID                                       : 7
Format                                   : UTF-8
Codec ID                                 : S_TEXT/UTF8
Codec ID/Info                            : UTF-8 Plain Text
Duration                                 : 52 min 46 s
Bit rate                                 : 53 b/s
Frame rate                               : 0.193 FPS
Count of elements                        : 611
Stream size                              : 20.6 KiB (0%)
Title                                    : Simplified
Language                                 : Chinese (Simplified)
Default                                  : No
Forced                                   : No

Text #6
ID                                       : 8
Format                                   : UTF-8
Codec ID                                 : S_TEXT/UTF8
Codec ID/Info                            : UTF-8 Plain Text
Duration                                 : 52 min 46 s
Bit rate                                 : 49 b/s
Frame rate                               : 0.194 FPS
Count of elements                        : 613
Stream size                              : 19.2 KiB (0%)
Title                                    : Traditional
Language                                 : Chinese (Traditional)
Default                                  : No
Forced                                   : No

Text #7
ID                                       : 9
Format                                   : UTF-8
Codec ID                                 : S_TEXT/UTF8
Codec ID/Info                            : UTF-8 Plain Text
Duration                                 : 52 min 46 s
Bit rate                                 : 54 b/s
Frame rate                               : 0.179 FPS
Count of elements                        : 566
Stream size                              : 21.1 KiB (0%)
Language                                 : Czech
Default                                  : No
Forced                                   : No

Text #8
ID                                       : 10
Format                                   : UTF-8
Codec ID                                 : S_TEXT/UTF8
Codec ID/Info                            : UTF-8 Plain Text
Duration                                 : 52 min 46 s
Bit rate                                 : 57 b/s
Frame rate                               : 0.178 FPS
Count of elements                        : 563
Stream size                              : 22.4 KiB (0%)
Language                                 : Danish
Default                                  : No
Forced                                   : No

Text #9
ID                                       : 11
Format                                   : UTF-8
Codec ID                                 : S_TEXT/UTF8
Codec ID/Info                            : UTF-8 Plain Text
Duration                                 : 52 min 40 s
Bit rate                                 : 58 b/s
Frame rate                               : 0.204 FPS
Count of elements                        : 644
Stream size                              : 22.7 KiB (0%)
Language                                 : German
Default                                  : No
Forced                                   : No

Text #10
ID                                       : 12
Format                                   : UTF-8
Codec ID                                 : S_TEXT/UTF8
Codec ID/Info                            : UTF-8 Plain Text
Duration                                 : 52 min 46 s
Bit rate                                 : 97 b/s
Frame rate                               : 0.189 FPS
Count of elements                        : 600
Stream size                              : 37.6 KiB (0%)
Language                                 : Greek
Default                                  : No
Forced                                   : No

Text #11
ID                                       : 13
Format                                   : UTF-8
Codec ID                                 : S_TEXT/UTF8
Codec ID/Info                            : UTF-8 Plain Text
Duration                                 : 52 min 46 s
Bit rate                                 : 56 b/s
Frame rate                               : 0.189 FPS
Count of elements                        : 598
Stream size                              : 21.8 KiB (0%)
Title                                    : Latin American
Language                                 : Spanish (Latin America)
Default                                  : No
Forced                                   : No

Text #12
ID                                       : 14
Format                                   : UTF-8
Codec ID                                 : S_TEXT/UTF8
Codec ID/Info                            : UTF-8 Plain Text
Duration                                 : 52 min 46 s
Bit rate                                 : 59 b/s
Frame rate                               : 0.196 FPS
Count of elements                        : 621
Stream size                              : 23.1 KiB (0%)
Language                                 : Spanish (ES)
Default                                  : No
Forced                                   : No

Text #13
ID                                       : 15
Format                                   : UTF-8
Codec ID                                 : S_TEXT/UTF8
Codec ID/Info                            : UTF-8 Plain Text
Duration                                 : 52 min 46 s
Bit rate                                 : 54 b/s
Frame rate                               : 0.186 FPS
Count of elements                        : 590
Stream size                              : 21.1 KiB (0%)
Language                                 : Estonian
Default                                  : No
Forced                                   : No

Text #14
ID                                       : 16
Format                                   : UTF-8
Codec ID                                 : S_TEXT/UTF8
Codec ID/Info                            : UTF-8 Plain Text
Duration                                 : 52 min 46 s
Bit rate                                 : 54 b/s
Frame rate                               : 0.182 FPS
Count of elements                        : 575
Stream size                              : 21.0 KiB (0%)
Language                                 : Finnish
Default                                  : No
Forced                                   : No

Text #15
ID                                       : 17
Format                                   : UTF-8
Codec ID                                 : S_TEXT/UTF8
Codec ID/Info                            : UTF-8 Plain Text
Duration                                 : 52 min 43 s
Bit rate                                 : 56 b/s
Frame rate                               : 0.221 FPS
Count of elements                        : 699
Stream size                              : 21.7 KiB (0%)
Title                                    : Canadian
Language                                 : French (CA)
Default                                  : No
Forced                                   : No

Text #16
ID                                       : 18
Format                                   : UTF-8
Codec ID                                 : S_TEXT/UTF8
Codec ID/Info                            : UTF-8 Plain Text
Duration                                 : 52 min 43 s
Bit rate                                 : 56 b/s
Frame rate                               : 0.220 FPS
Count of elements                        : 697
Stream size                              : 21.7 KiB (0%)
Language                                 : French (FR)
Default                                  : No
Forced                                   : No

Text #17
ID                                       : 19
Format                                   : UTF-8
Codec ID                                 : S_TEXT/UTF8
Codec ID/Info                            : UTF-8 Plain Text
Duration                                 : 52 min 46 s
Bit rate                                 : 82 b/s
Frame rate                               : 0.193 FPS
Count of elements                        : 610
Stream size                              : 32.0 KiB (0%)
Language                                 : Hebrew
Default                                  : No
Forced                                   : No

Text #18
ID                                       : 20
Format                                   : UTF-8
Codec ID                                 : S_TEXT/UTF8
Codec ID/Info                            : UTF-8 Plain Text
Duration                                 : 52 min 46 s
Bit rate                                 : 156 b/s
Frame rate                               : 0.193 FPS
Count of elements                        : 612
Stream size                              : 60.5 KiB (0%)
Language                                 : Hindi
Default                                  : No
Forced                                   : No

Text #19
ID                                       : 21
Format                                   : UTF-8
Codec ID                                 : S_TEXT/UTF8
Codec ID/Info                            : UTF-8 Plain Text
Duration                                 : 52 min 46 s
Bit rate                                 : 55 b/s
Frame rate                               : 0.188 FPS
Count of elements                        : 595
Stream size                              : 21.6 KiB (0%)
Language                                 : Hungarian
Default                                  : No
Forced                                   : No

Text #20
ID                                       : 22
Format                                   : UTF-8
Codec ID                                 : S_TEXT/UTF8
Codec ID/Info                            : UTF-8 Plain Text
Duration                                 : 52 min 46 s
Bit rate                                 : 59 b/s
Frame rate                               : 0.189 FPS
Count of elements                        : 597
Stream size                              : 23.1 KiB (0%)
Language                                 : Indonesian
Default                                  : No
Forced                                   : No

Text #21
ID                                       : 23
Format                                   : UTF-8
Codec ID                                 : S_TEXT/UTF8
Codec ID/Info                            : UTF-8 Plain Text
Duration                                 : 52 min 34 s
Bit rate                                 : 56 b/s
Frame rate                               : 0.200 FPS
Count of elements                        : 632
Stream size                              : 21.8 KiB (0%)
Language                                 : Italian
Default                                  : No
Forced                                   : No

Text #22
ID                                       : 24
Format                                   : UTF-8
Codec ID                                 : S_TEXT/UTF8
Codec ID/Info                            : UTF-8 Plain Text
Duration                                 : 52 min 41 s
Bit rate                                 : 48 b/s
Frame rate                               : 0.198 FPS
Count of elements                        : 627
Stream size                              : 18.8 KiB (0%)
Language                                 : Japanese
Default                                  : No
Forced                                   : No

Text #23
ID                                       : 25
Format                                   : UTF-8
Codec ID                                 : S_TEXT/UTF8
Codec ID/Info                            : UTF-8 Plain Text
Duration                                 : 52 min 46 s
Bit rate                                 : 58 b/s
Frame rate                               : 0.193 FPS
Count of elements                        : 612
Stream size                              : 22.6 KiB (0%)
Language                                 : Korean
Default                                  : No
Forced                                   : No

Text #24
ID                                       : 26
Format                                   : UTF-8
Codec ID                                 : S_TEXT/UTF8
Codec ID/Info                            : UTF-8 Plain Text
Duration                                 : 52 min 46 s
Bit rate                                 : 57 b/s
Frame rate                               : 0.191 FPS
Count of elements                        : 604
Stream size                              : 22.1 KiB (0%)
Language                                 : Lithuanian
Default                                  : No
Forced                                   : No

Text #25
ID                                       : 27
Format                                   : UTF-8
Codec ID                                 : S_TEXT/UTF8
Codec ID/Info                            : UTF-8 Plain Text
Duration                                 : 52 min 46 s
Bit rate                                 : 58 b/s
Frame rate                               : 0.185 FPS
Count of elements                        : 587
Stream size                              : 22.7 KiB (0%)
Language                                 : Latvian
Default                                  : No
Forced                                   : No

Text #26
ID                                       : 28
Format                                   : UTF-8
Codec ID                                 : S_TEXT/UTF8
Codec ID/Info                            : UTF-8 Plain Text
Duration                                 : 52 min 46 s
Bit rate                                 : 55 b/s
Frame rate                               : 0.191 FPS
Count of elements                        : 604
Stream size                              : 21.6 KiB (0%)
Language                                 : Malay
Default                                  : No
Forced                                   : No

Text #27
ID                                       : 29
Format                                   : UTF-8
Codec ID                                 : S_TEXT/UTF8
Codec ID/Info                            : UTF-8 Plain Text
Duration                                 : 52 min 46 s
Bit rate                                 : 53 b/s
Frame rate                               : 0.159 FPS
Count of elements                        : 505
Stream size                              : 20.5 KiB (0%)
Language                                 : Dutch
Default                                  : No
Forced                                   : No

Text #28
ID                                       : 30
Format                                   : UTF-8
Codec ID                                 : S_TEXT/UTF8
Codec ID/Info                            : UTF-8 Plain Text
Duration                                 : 52 min 46 s
Bit rate                                 : 52 b/s
Frame rate                               : 0.170 FPS
Count of elements                        : 539
Stream size                              : 20.5 KiB (0%)
Language                                 : Norwegian
Default                                  : No
Forced                                   : No

Text #29
ID                                       : 31
Format                                   : UTF-8
Codec ID                                 : S_TEXT/UTF8
Codec ID/Info                            : UTF-8 Plain Text
Duration                                 : 52 min 46 s
Bit rate                                 : 53 b/s
Frame rate                               : 0.182 FPS
Count of elements                        : 575
Stream size                              : 20.5 KiB (0%)
Language                                 : Polish
Default                                  : No
Forced                                   : No

Text #30
ID                                       : 32
Format                                   : UTF-8
Codec ID                                 : S_TEXT/UTF8
Codec ID/Info                            : UTF-8 Plain Text
Duration                                 : 52 min 46 s
Bit rate                                 : 56 b/s
Frame rate                               : 0.188 FPS
Count of elements                        : 595
Stream size                              : 22.0 KiB (0%)
Language                                 : Portuguese
Default                                  : No
Forced                                   : No

Text #31
ID                                       : 33
Format                                   : UTF-8
Codec ID                                 : S_TEXT/UTF8
Codec ID/Info                            : UTF-8 Plain Text
Duration                                 : 52 min 46 s
Bit rate                                 : 54 b/s
Frame rate                               : 0.181 FPS
Count of elements                        : 573
Stream size                              : 21.2 KiB (0%)
Title                                    : Brazilian
Language                                 : Portuguese (BR)
Default                                  : No
Forced                                   : No

Text #32
ID                                       : 34
Format                                   : UTF-8
Codec ID                                 : S_TEXT/UTF8
Codec ID/Info                            : UTF-8 Plain Text
Duration                                 : 52 min 46 s
Bit rate                                 : 86 b/s
Frame rate                               : 0.191 FPS
Count of elements                        : 604
Stream size                              : 33.5 KiB (0%)
Language                                 : Russian
Default                                  : No
Forced                                   : No

Text #33
ID                                       : 35
Format                                   : UTF-8
Codec ID                                 : S_TEXT/UTF8
Codec ID/Info                            : UTF-8 Plain Text
Duration                                 : 52 min 46 s
Bit rate                                 : 54 b/s
Frame rate                               : 0.189 FPS
Count of elements                        : 598
Stream size                              : 21.0 KiB (0%)
Language                                 : Slovak
Default                                  : No
Forced                                   : No

Text #34
ID                                       : 36
Format                                   : UTF-8
Codec ID                                 : S_TEXT/UTF8
Codec ID/Info                            : UTF-8 Plain Text
Duration                                 : 52 min 46 s
Bit rate                                 : 46 b/s
Frame rate                               : 0.164 FPS
Count of elements                        : 520
Stream size                              : 18.1 KiB (0%)
Language                                 : Slovenian
Default                                  : No
Forced                                   : No

Text #35
ID                                       : 37
Format                                   : UTF-8
Codec ID                                 : S_TEXT/UTF8
Codec ID/Info                            : UTF-8 Plain Text
Duration                                 : 52 min 46 s
Bit rate                                 : 58 b/s
Frame rate                               : 0.186 FPS
Count of elements                        : 589
Stream size                              : 22.7 KiB (0%)
Language                                 : Swedish
Default                                  : No
Forced                                   : No

Text #36
ID                                       : 38
Format                                   : UTF-8
Codec ID                                 : S_TEXT/UTF8
Codec ID/Info                            : UTF-8 Plain Text
Duration                                 : 52 min 46 s
Bit rate                                 : 170 b/s
Frame rate                               : 0.192 FPS
Count of elements                        : 609
Stream size                              : 66.0 KiB (0%)
Language                                 : Tamil
Default                                  : No
Forced                                   : No

Text #37
ID                                       : 39
Format                                   : UTF-8
Codec ID                                 : S_TEXT/UTF8
Codec ID/Info                            : UTF-8 Plain Text
Duration                                 : 52 min 46 s
Bit rate                                 : 169 b/s
Frame rate                               : 0.193 FPS
Count of elements                        : 610
Stream size                              : 65.3 KiB (0%)
Language                                 : Telugu
Default                                  : No
Forced                                   : No

Text #38
ID                                       : 40
Format                                   : UTF-8
Codec ID                                 : S_TEXT/UTF8
Codec ID/Info                            : UTF-8 Plain Text
Duration                                 : 52 min 46 s
Bit rate                                 : 143 b/s
Frame rate                               : 0.193 FPS
Count of elements                        : 611
Stream size                              : 55.5 KiB (0%)
Language                                 : Thai
Default                                  : No
Forced                                   : No

Text #39
ID                                       : 41
Format                                   : UTF-8
Codec ID                                 : S_TEXT/UTF8
Codec ID/Info                            : UTF-8 Plain Text
Duration                                 : 52 min 46 s
Bit rate                                 : 55 b/s
Frame rate                               : 0.186 FPS
Count of elements                        : 589
Stream size                              : 21.5 KiB (0%)
Language                                 : Turkish
Default                                  : No
Forced                                   : No

Text #40
ID                                       : 42
Format                                   : UTF-8
Codec ID                                 : S_TEXT/UTF8
Codec ID/Info                            : UTF-8 Plain Text
Duration                                 : 52 min 46 s
Bit rate                                 : 90 b/s
Frame rate                               : 0.193 FPS
Count of elements                        : 611
Stream size                              : 35.1 KiB (0%)
Language                                 : Ukrainian
Default                                  : No
Forced                                   : No

Text #41
ID                                       : 43
Format                                   : UTF-8
Codec ID                                 : S_TEXT/UTF8
Codec ID/Info                            : UTF-8 Plain Text
Duration                                 : 52 min 46 s
Bit rate                                 : 75 b/s
Frame rate                               : 0.187 FPS
Count of elements                        : 593
Stream size                              : 29.0 KiB (0%)
Language                                 : Vietnamese
Default                                  : No
Forced                                   : No

Text #42
ID                                       : 44
Format                                   : UTF-8
Codec ID                                 : S_TEXT/UTF8
Codec ID/Info                            : UTF-8 Plain Text
Duration                                 : 52 min 46 s
Bit rate                                 : 46 b/s
Frame rate                               : 0.194 FPS
Count of elements                        : 613
Stream size                              : 17.8 KiB (0%)
Title                                    : Traditional
Language                                 : Cantonese (Hant)
Default                                  : No
Forced                                   : No

Menu
00:00:00.000                             : en:Studio Logo
00:00:08.963                             : en:Recap
00:01:41.844                             : en:Scene 01
00:04:36.302                             : en:Intro
00:05:19.760                             : en:Scene 02
00:51:30.416                             : en:Credits



Download
File Container: MKV
Video/Audio Codec: H264 (HIGH) EAC3
Video Resolution: 1280x720
Please Login to post a comment.
If you don't have any account, please Register.
  • Subscribe my Feeds
  • Facebook
Encoding Queue:  x264  x265

Latest Episodes

Popular Movies and TV Shows

  • The Channel
  • This Town
  • The Bellboy and the Playgirls
  • Roadkill
  • Yannick
  • Match of the Day 2
  • Shogun
  • A Very Royal Crisis: Countdown to Abdication
  • Ninja Kamui
  • Faster with Newbern and Cotten
  • One for the Road
  • The Ace and the Scout
  • Beacon 23
  • Parish
  • Saturday Night Live
  • Fantastic Four: Rise of the Silver Surfer
  • Immoral Women
  • Willow
  • Fallout
  • Grey's Anatomy
  • S.W.A.T.
  • Riddle of Fire
  • Pacific Rim: Uprising
  • Scrambled
  • FBI

Recent Comments

  • mentalityx:

    Rad bloke

  • DownloadHostInspector:

    so far these RMTeam uploads always have a working link. DownloadHostInspector approved!

  • DownloadHostInspector:

    ah yes, this upload has a host that works. clicknupload. DownloadHostInspector approved!

  • DownloadHostInspector: Why are all the download hosts trash? none of them let you download it
  • Qua4ratic:

    clicknupload link plz

  • ppoo:

    Please, can you add "Real Time with Bill Maher S22E11" ??

  • theahtisham:

    Kindly upload Ep. 3 and 4 as well.

  • Kudzu: Update on sound issue, File's codec info says stereo but is only a the left channel If I switch i...
  • Admin:

    kang
    Getting error while encoding, sorry

Archives