Sign Up   |   Sign In  
Beacon 23ParishSaturday Night LiveNorth Korea: Inside the Mind of a DictatorWillowImmoral WomenRiddle of FireA Gentleman in MoscowBlueyScrambled48 HoursBlue BloodsGrey's AnatomyS.W.A.T.Pacific Rim: UprisingThe War on ChildrenSleeping DogsFalloutFire CountryStar Trek: DiscoveryT2 TrainspottingWhiplashDamagedSugarYoung Sheldon

Announcements

04/03

2024

No

Comments

The Rookie S06E05 The Vow 720p AMZN WEB-DL DDP5 1 H 264-FLUX
[RR/NF/CU]
Size: 1.3GB mkv H264 (HIGH) / EAC3  HD  1280x720

The Rookie
File Information
[img]http://lookpic.com/cdn/i2/t/0403202407063284-1.jpg[/img]
[img]http://lookpic.com/cdn/i2/t/0403202407063284-2.jpg[/img]
[img]http://lookpic.com/cdn/i2/t/0403202407063284-3.jpg[/img]

General
Unique ID                                : 126597903401326566965473006481977468887 (0x5F3DDE8AD1EE55DF220DFF10066D67D7)
Complete name                            : The Rookie S06E05 The Vow 720p AMZN WEB-DL DDP5 1 H 264-FLUX.mkv
Format                                   : Matroska
Format version                           : Version 4
File size                                : 1.31 GiB
Duration                                 : 41 min 43 s
Overall bit rate                         : 4 507 kb/s
Frame rate                               : 23.976 FPS
Writing application                      : mkvmerge v82.0 ('I'm The President') 64-bit
Writing library                          : libebml v1.4.5 + libmatroska v1.7.1

Video
ID                                       : 1
Format                                   : AVC
Format/Info                              : Advanced Video Codec
Format profile                           : [email protected]
Format settings                          : CABAC / 4 Ref Frames
Format settings, CABAC                   : Yes
Format settings, Reference frames        : 4 frames
Codec ID                                 : V_MPEG4/ISO/AVC
Duration                                 : 41 min 43 s
Bit rate mode                            : Constant
Bit rate                                 : 3 865 kb/s
Nominal bit rate                         : 6 000 kb/s
Width                                    : 1 280 pixels
Height                                   : 720 pixels
Display aspect ratio                     : 16:9
Frame rate mode                          : Constant
Frame rate                               : 23.976 (24000/1001) FPS
Color space                              : YUV
Chroma subsampling                       : 4:2:0
Bit depth                                : 8 bits
Scan type                                : Progressive
Bits/(Pixel*Frame)                       : 0.175
Stream size                              : 1.13 GiB (86%)
Language                                 : English (US)
Default                                  : Yes
Forced                                   : No
Color range                              : Limited
Color primaries                          : BT.709
Transfer characteristics                 : BT.709
Matrix coefficients                      : BT.709

Audio
ID                                       : 2
Format                                   : E-AC-3
Format/Info                              : Enhanced AC-3
Commercial name                          : Dolby Digital Plus
Codec ID                                 : A_EAC3
Duration                                 : 41 min 43 s
Bit rate mode                            : Constant
Bit rate                                 : 640 kb/s
Channel(s)                               : 6 channels
Channel layout                           : L R C LFE Ls Rs
Sampling rate                            : 48.0 kHz
Frame rate                               : 31.250 FPS (1536 SPF)
Compression mode                         : Lossy
Stream size                              : 191 MiB (14%)
Language                                 : English
Service kind                             : Complete Main
Default                                  : Yes
Forced                                   : No

Text #1
ID                                       : 3
Format                                   : UTF-8
Codec ID                                 : S_TEXT/UTF8
Codec ID/Info                            : UTF-8 Plain Text
Duration                                 : 41 min 36 s
Bit rate                                 : 90 b/s
Frame rate                               : 0.378 FPS
Count of elements                        : 943
Stream size                              : 27.6 KiB (0%)
Language                                 : English (US)
Default                                  : No
Forced                                   : No

Text #2
ID                                       : 4
Format                                   : UTF-8
Codec ID                                 : S_TEXT/UTF8
Codec ID/Info                            : UTF-8 Plain Text
Duration                                 : 41 min 36 s
Bit rate                                 : 95 b/s
Frame rate                               : 0.410 FPS
Count of elements                        : 1024
Stream size                              : 29.2 KiB (0%)
Title                                    : SDH
Language                                 : English (US)
Default                                  : No
Forced                                   : No

Menu
00:00:00.000                             : en:Scene 1
00:41:03.000                             : en:End Credits



Download
File Container: MKV
Video/Audio Codec: H264 (HIGH) EAC3
Video Resolution: 1280x720
Please Login to post a comment.
If you don't have any account, please Register.
  • Subscribe my Feeds
  • Facebook
Encoding Queue:  x264  x265

Latest Episodes

Popular Movies and TV Shows

  • Beacon 23
  • Parish
  • Saturday Night Live
  • North Korea: Inside the Mind of a Dictator
  • Willow
  • Immoral Women
  • Riddle of Fire
  • A Gentleman in Moscow
  • Bluey
  • Scrambled
  • 48 Hours
  • Blue Bloods
  • Grey's Anatomy
  • S.W.A.T.
  • Pacific Rim: Uprising
  • The War on Children
  • Sleeping Dogs
  • Fallout
  • Fire Country
  • Star Trek: Discovery
  • T2 Trainspotting
  • Whiplash
  • Damaged
  • Sugar
  • Young Sheldon

Recent Comments

  • DownloadHostInspector:

    so far these RMTeam uploads always have a working link. DownloadHostInspector approved!

  • DownloadHostInspector:

    ah yes, this upload has a host that works. clicknupload. DownloadHostInspector approved!

  • DownloadHostInspector: Why are all the download hosts trash? none of them let you download it
  • Qua4ratic:

    clicknupload link plz

  • ppoo:

    Please, can you add "Real Time with Bill Maher S22E11" ??

  • theahtisham:

    Kindly upload Ep. 3 and 4 as well.

  • Kudzu: Update on sound issue, File's codec info says stereo but is only a the left channel If I switch i...
  • Admin:

    kang
    Getting error while encoding, sorry

  • rambaldi70:

    sorry this release ok.
    but descripton is bad
    (Duration: 2h56m7s)

Archives