Sign Up   |   Sign In  
Poor ThingsIngaThe WayMurdoch MysteriesThe RegimeTommy BoyTrackerThe EqualizerS.W.A.T.The Legend of ZorroEnter Arsene LupinBurn After ReadingCSI: VegasBlackshoreCurb Your EnthusiasmWarm BodiesSpitfireSomeone Lives HereThe Walking Dead: The Ones Who LiveDeath in ParadiseKrapopolisThe Phantom WarriorTenacious D in the Pick of DestinyFootlooseRed Queen

Announcements

02/09

2024

1

Comments

Tokyo Vice S02E02 Be My Number One 1080p AMZN WEB-DL DDP5 1 H 264-NTb
[RR/NF]
Size: 3.8GB mkv H264 (HIGH) / EAC3  HD  1920x960

Tokyo Vice
File Information
[img]http://lookpic.com/cdn/i2/t/0208202412524226-1.jpg[/img]
[img]http://lookpic.com/cdn/i2/t/0208202412524226-2.jpg[/img]
[img]http://lookpic.com/cdn/i2/t/0208202412524226-3.jpg[/img]

General
Unique ID                                : 37470729765218488702779456902705452373 (0x1C30999CD4826577A187CBDA62B41555)
Complete name                            : Tokyo.Vice.S02E02.Be.My.Number.One.1080p.AMZN.WEB-DL.DDP5.1.H.264-NTb.mkv
Format                                   : Matroska
Format version                           : Version 4
File size                                : 3.79 GiB
Duration                                 : 1 h 0 min
Overall bit rate                         : 9 020 kb/s
Frame rate                               : 23.976 FPS
Writing application                      : mkvmerge v81.0 ('Milliontown') 64-bit
Writing library                          : libebml v1.4.4 + libmatroska v1.7.1

Video
ID                                       : 1
Format                                   : AVC
Format/Info                              : Advanced Video Codec
Format profile                           : High@L4
Format settings                          : CABAC / 4 Ref Frames
Format settings, CABAC                   : Yes
Format settings, Reference frames        : 4 frames
Codec ID                                 : V_MPEG4/ISO/AVC
Duration                                 : 1 h 0 min
Bit rate mode                            : Constant
Bit rate                                 : 8 379 kb/s
Nominal bit rate                         : 10 000 kb/s
Width                                    : 1 920 pixels
Height                                   : 960 pixels
Display aspect ratio                     : 2.000
Frame rate mode                          : Constant
Frame rate                               : 23.976 (24000/1001) FPS
Color space                              : YUV
Chroma subsampling                       : 4:2:0
Bit depth                                : 8 bits
Scan type                                : Progressive
Bits/(Pixel*Frame)                       : 0.190
Stream size                              : 3.52 GiB (93%)
Default                                  : Yes
Forced                                   : No
Color range                              : Limited
Color primaries                          : BT.709
Transfer characteristics                 : BT.709
Matrix coefficients                      : BT.709

Audio
ID                                       : 2
Format                                   : E-AC-3 JOC
Format/Info                              : Enhanced AC-3 with Joint Object Coding
Commercial name                          : Dolby Digital Plus with Dolby Atmos
Codec ID                                 : A_EAC3
Duration                                 : 1 h 0 min
Bit rate mode                            : Constant
Bit rate                                 : 640 kb/s
Channel(s)                               : 6 channels
Channel layout                           : L R C LFE Ls Rs
Sampling rate                            : 48.0 kHz
Frame rate                               : 31.250 FPS (1536 SPF)
Compression mode                         : Lossy
Stream size                              : 275 MiB (7%)
Language                                 : English
Service kind                             : Complete Main
Default                                  : Yes
Forced                                   : No
Complexity index                         : 16
Number of dynamic objects                : 15
Bed channel count                        : 1 channel
Bed channel configuration                : LFE

Text #1
ID                                       : 3
Format                                   : UTF-8
Codec ID                                 : S_TEXT/UTF8
Codec ID/Info                            : UTF-8 Plain Text
Duration                                 : 56 min 13 s
Bit rate                                 : 50 b/s
Frame rate                               : 0.191 FPS
Count of elements                        : 645
Stream size                              : 21.0 KiB (0%)
Language                                 : English (US)
Default                                  : No
Forced                                   : No

Text #2
ID                                       : 4
Format                                   : UTF-8
Codec ID                                 : S_TEXT/UTF8
Codec ID/Info                            : UTF-8 Plain Text
Duration                                 : 59 min 41 s
Bit rate                                 : 30 b/s
Frame rate                               : 0.146 FPS
Count of elements                        : 524
Stream size                              : 13.2 KiB (0%)
Title                                    : SDH
Language                                 : English (US)
Default                                  : No
Forced                                   : No

Text #3
ID                                       : 5
Format                                   : UTF-8
Codec ID                                 : S_TEXT/UTF8
Codec ID/Info                            : UTF-8 Plain Text
Duration                                 : 58 min 42 s
Bit rate                                 : 86 b/s
Frame rate                               : 0.176 FPS
Count of elements                        : 621
Stream size                              : 37.1 KiB (0%)
Language                                 : Bulgarian (BG)
Default                                  : No
Forced                                   : No

Text #4
ID                                       : 6
Format                                   : UTF-8
Codec ID                                 : S_TEXT/UTF8
Codec ID/Info                            : UTF-8 Plain Text
Duration                                 : 58 min 35 s
Bit rate                                 : 46 b/s
Frame rate                               : 0.185 FPS
Count of elements                        : 649
Stream size                              : 19.8 KiB (0%)
Language                                 : Czech (CZ)
Default                                  : No
Forced                                   : No

Text #5
ID                                       : 7
Format                                   : UTF-8
Codec ID                                 : S_TEXT/UTF8
Codec ID/Info                            : UTF-8 Plain Text
Duration                                 : 57 min 22 s
Bit rate                                 : 49 b/s
Frame rate                               : 0.148 FPS
Count of elements                        : 510
Stream size                              : 20.7 KiB (0%)
Language                                 : Danish (DK)
Default                                  : No
Forced                                   : No

Text #6
ID                                       : 8
Format                                   : UTF-8
Codec ID                                 : S_TEXT/UTF8
Codec ID/Info                            : UTF-8 Plain Text
Duration                                 : 58 min 9 s
Bit rate                                 : 53 b/s
Frame rate                               : 0.187 FPS
Count of elements                        : 651
Stream size                              : 22.9 KiB (0%)
Title                                    : Spanish (Latin America)
Language                                 : Spanish (Latin America)
Default                                  : No
Forced                                   : No

Text #7
ID                                       : 9
Format                                   : UTF-8
Codec ID                                 : S_TEXT/UTF8
Codec ID/Info                            : UTF-8 Plain Text
Duration                                 : 56 min 13 s
Bit rate                                 : 52 b/s
Frame rate                               : 0.193 FPS
Count of elements                        : 651
Stream size                              : 21.7 KiB (0%)
Title                                    : Spanish (Spain)
Language                                 : Spanish (ES)
Default                                  : No
Forced                                   : No

Text #8
ID                                       : 10
Format                                   : UTF-8
Codec ID                                 : S_TEXT/UTF8
Codec ID/Info                            : UTF-8 Plain Text
Duration                                 : 57 min 22 s
Bit rate                                 : 48 b/s
Frame rate                               : 0.161 FPS
Count of elements                        : 553
Stream size                              : 20.3 KiB (0%)
Language                                 : Finnish (FI)
Default                                  : No
Forced                                   : No

Text #9
ID                                       : 11
Format                                   : UTF-8
Codec ID                                 : S_TEXT/UTF8
Codec ID/Info                            : UTF-8 Plain Text
Duration                                 : 58 min 37 s
Bit rate                                 : 43 b/s
Frame rate                               : 0.183 FPS
Count of elements                        : 644
Stream size                              : 18.5 KiB (0%)
Language                                 : Croatian (HR)
Default                                  : No
Forced                                   : No

Text #10
ID                                       : 12
Format                                   : UTF-8
Codec ID                                 : S_TEXT/UTF8
Codec ID/Info                            : UTF-8 Plain Text
Duration                                 : 58 min 43 s
Bit rate                                 : 48 b/s
Frame rate                               : 0.185 FPS
Count of elements                        : 651
Stream size                              : 21.0 KiB (0%)
Language                                 : Hungarian (HU)
Default                                  : No
Forced                                   : No

Text #11
ID                                       : 13
Format                                   : UTF-8
Codec ID                                 : S_TEXT/UTF8
Codec ID/Info                            : UTF-8 Plain Text
Duration                                 : 58 min 37 s
Bit rate                                 : 76 b/s
Frame rate                               : 0.183 FPS
Count of elements                        : 644
Stream size                              : 32.9 KiB (0%)
Language                                 : Macedonian (MK)
Default                                  : No
Forced                                   : No

Text #12
ID                                       : 14
Format                                   : UTF-8
Codec ID                                 : S_TEXT/UTF8
Codec ID/Info                            : UTF-8 Plain Text
Duration                                 : 57 min 22 s
Bit rate                                 : 46 b/s
Frame rate                               : 0.155 FPS
Count of elements                        : 532
Stream size                              : 19.3 KiB (0%)
Language                                 : Dutch (NL)
Default                                  : No
Forced                                   : No

Text #13
ID                                       : 15
Format                                   : UTF-8
Codec ID                                 : S_TEXT/UTF8
Codec ID/Info                            : UTF-8 Plain Text
Duration                                 : 57 min 22 s
Bit rate                                 : 46 b/s
Frame rate                               : 0.145 FPS
Count of elements                        : 498
Stream size                              : 19.4 KiB (0%)
Language                                 : Norwegian (NO)
Default                                  : No
Forced                                   : No

Text #14
ID                                       : 16
Format                                   : UTF-8
Codec ID                                 : S_TEXT/UTF8
Codec ID/Info                            : UTF-8 Plain Text
Duration                                 : 59 min 42 s
Bit rate                                 : 39 b/s
Frame rate                               : 0.159 FPS
Count of elements                        : 569
Stream size                              : 17.3 KiB (0%)
Language                                 : Polish (PL)
Default                                  : No
Forced                                   : No

Text #15
ID                                       : 17
Format                                   : UTF-8
Codec ID                                 : S_TEXT/UTF8
Codec ID/Info                            : UTF-8 Plain Text
Duration                                 : 58 min 9 s
Bit rate                                 : 55 b/s
Frame rate                               : 0.187 FPS
Count of elements                        : 652
Stream size                              : 23.7 KiB (0%)
Title                                    : Portuguese (Brazil)
Language                                 : Portuguese (BR)
Default                                  : No
Forced                                   : No

Text #16
ID                                       : 18
Format                                   : UTF-8
Codec ID                                 : S_TEXT/UTF8
Codec ID/Info                            : UTF-8 Plain Text
Duration                                 : 57 min 22 s
Bit rate                                 : 50 b/s
Frame rate                               : 0.162 FPS
Count of elements                        : 559
Stream size                              : 21.2 KiB (0%)
Title                                    : Portuguese (Portugal)
Language                                 : Portuguese (PT)
Default                                  : No
Forced                                   : No

Text #17
ID                                       : 19
Format                                   : UTF-8
Codec ID                                 : S_TEXT/UTF8
Codec ID/Info                            : UTF-8 Plain Text
Duration                                 : 58 min 32 s
Bit rate                                 : 46 b/s
Frame rate                               : 0.182 FPS
Count of elements                        : 638
Stream size                              : 19.9 KiB (0%)
Language                                 : Romanian (RO)
Default                                  : No
Forced                                   : No

Text #18
ID                                       : 20
Format                                   : UTF-8
Codec ID                                 : S_TEXT/UTF8
Codec ID/Info                            : UTF-8 Plain Text
Duration                                 : 58 min 42 s
Bit rate                                 : 48 b/s
Frame rate                               : 0.187 FPS
Count of elements                        : 659
Stream size                              : 20.6 KiB (0%)
Language                                 : Slovak (SK)
Default                                  : No
Forced                                   : No

Text #19
ID                                       : 21
Format                                   : UTF-8
Codec ID                                 : S_TEXT/UTF8
Codec ID/Info                            : UTF-8 Plain Text
Duration                                 : 58 min 37 s
Bit rate                                 : 41 b/s
Frame rate                               : 0.183 FPS
Count of elements                        : 644
Stream size                              : 17.8 KiB (0%)
Language                                 : Slovenian (SI)
Default                                  : No
Forced                                   : No

Text #20
ID                                       : 22
Format                                   : UTF-8
Codec ID                                 : S_TEXT/UTF8
Codec ID/Info                            : UTF-8 Plain Text
Duration                                 : 58 min 37 s
Bit rate                                 : 43 b/s
Frame rate                               : 0.183 FPS
Count of elements                        : 644
Stream size                              : 18.7 KiB (0%)
Language                                 : Serbian-Latn-RS
Default                                  : No
Forced                                   : No

Text #21
ID                                       : 23
Format                                   : UTF-8
Codec ID                                 : S_TEXT/UTF8
Codec ID/Info                            : UTF-8 Plain Text
Duration                                 : 57 min 22 s
Bit rate                                 : 47 b/s
Frame rate                               : 0.145 FPS
Count of elements                        : 500
Stream size                              : 20.0 KiB (0%)
Language                                 : Swedish (SE)
Default                                  : No
Forced                                   : No

Menu
00:00:00.000                             : en:Intro
00:01:18.073                             : en:Chapter 1
00:13:40.230                             : en:Chapter 3
00:25:16.926                             : en:Chapter 4
00:37:27.447                             : en:Chapter 5
00:47:37.098                             : en:Chapter 6
00:59:03.367                             : en:Credits
00:59:55.419                             : en:Chapter 7



Download
File Container: MKV
Video/Audio Codec: H264 (HIGH) EAC3
Video Resolution: 1920x960

1 Response to "[RR/NF] Tokyo Vice S02E02 Be My Number One 1080p AMZN WEB-DL DDP5 1 H 264-NTb (3.8GB)"
02/09/24
02:38:03
ReadyPlayerOne

Thank You

Please Login to post a comment.
If you don't have any account, please Register.
  • Subscribe my Feeds
  • Facebook
Encoding Queue:  x264  x265

Latest Episodes

Popular Movies and TV Shows

  • Poor Things
  • Inga
  • The Way
  • Murdoch Mysteries
  • The Regime
  • Tommy Boy
  • Tracker
  • The Equalizer
  • S.W.A.T.
  • The Legend of Zorro
  • Enter Arsene Lupin
  • Burn After Reading
  • CSI: Vegas
  • Blackshore
  • Curb Your Enthusiasm
  • Warm Bodies
  • Spitfire
  • Someone Lives Here
  • The Walking Dead: The Ones Who Live
  • Death in Paradise
  • Krapopolis
  • The Phantom Warrior
  • Tenacious D in the Pick of Destiny
  • Footloose
  • Red Queen

Recent Comments

  • tinyhands: Warning: Hardcoded Polish(?) subs. Maybe Hungarian? Japanese audio only, no other tracks/subs.
  • Modena:

    Please upload to clicknupload

  • aaroz88:

    Trimas!!

  • PROFessorMorrynarty:

    Any chance of a version with English subtitles please?

  • RMadcow:

    This release has German Audio and Subtitles

  • Bud:

    Any chance of a re-up on the clicknupload link?

  • ruf999:

    hanyou

  • uncabrian: If you can, please upload other seasons of "Eureka" in the same format and size. Much appr...
  • pr4455:

    hi this movie has no audio just commentry

  • asalan:

    please reupload.

  • asalan:

    reupload please.

  • newuser:

    need English Sub that Sync

Archives