Sign Up   |   Sign In  
Hannah Einbinder: Everything Must GoMILF of NorwayWelcome to WrexhamI Saw the TV GlowThe Big CigarUltraman: RisingThe Bold and the BeautifulSistasThe ChiBratsShrek Forever AfterWith Love, Your Sweetly SaltedWWE NXTThe BoysWalkerMower MinionsAssimilateNotas sobre un veranoEvilBridgertonCriminal MindsLamp LifeIn the Line of FireThe Artifice GirlThe Daily Show

Announcements

03/30

2024

No

Comments

Wonderful World S01E09 1080p DSNP WEB-DL AAC2 0 H 264-FLUX
[RR/NF]
Size: 2.6GB mkv H264 (HIGH) / AAC (LC)  HD  1920x1080

Wonderful World
  • Wonderful World (2024-)
  • Genre: Drama | Thriller
  • Original Language: Korean
  • Storyline: Psychology professor and writer Eun Soo Hyun's world shatters when her son suffers an unpunished injustice. Seeking vengeance, she unexpectedly discovers solace helping others embroiled in comparable cryptic cases.
File Information
[img]http://lookpic.com/cdn/i2/t/0330202421093441-1.jpg[/img]
[img]http://lookpic.com/cdn/i2/t/0330202421093441-2.jpg[/img]
[img]http://lookpic.com/cdn/i2/t/0330202421093441-3.jpg[/img]

General
Unique ID                                : 275698875408036859738582378149458292139 (0xCF69AC06C3C8C9924E16484B18912DAB)
Complete name                            : Wonderful World S01E09 1080p DSNP WEB-DL AAC2 0 H 264-FLUX.mkv
Format                                   : Matroska
Format version                           : Version 4
File size                                : 2.59 GiB
Duration                                 : 1 h 3 min
Overall bit rate mode                    : Variable
Overall bit rate                         : 5 817 kb/s
Frame rate                               : 23.976 FPS
Writing application                      : mkvmerge v77.0 ('Elemental') 64-bit
Writing library                          : libebml v1.4.4 + libmatroska v1.7.1

Video
ID                                       : 1
Format                                   : AVC
Format/Info                              : Advanced Video Codec
Format profile                           : High@L4
Format settings                          : CABAC / 4 Ref Frames
Format settings, CABAC                   : Yes
Format settings, Reference frames        : 4 frames
Codec ID                                 : V_MPEG4/ISO/AVC
Duration                                 : 1 h 3 min
Bit rate mode                            : Variable
Bit rate                                 : 5 689 kb/s
Maximum bit rate                         : 12.7 Mb/s
Width                                    : 1 920 pixels
Height                                   : 1 080 pixels
Display aspect ratio                     : 16:9
Frame rate mode                          : Constant
Frame rate                               : 23.976 (24000/1001) FPS
Color space                              : YUV
Chroma subsampling                       : 4:2:0
Bit depth                                : 8 bits
Scan type                                : Progressive
Bits/(Pixel*Frame)                       : 0.114
Time code of first frame                 : 00:00:00:0000000000
Stream size                              : 2.54 GiB (98%)
Default                                  : Yes
Forced                                   : No
Color range                              : Limited
Color primaries                          : BT.709
Transfer characteristics                 : BT.709
Matrix coefficients                      : BT.709

Audio
ID                                       : 2
Format                                   : AAC LC
Format/Info                              : Advanced Audio Codec Low Complexity
Codec ID                                 : A_AAC-2
Duration                                 : 1 h 3 min
Bit rate                                 : 125 kb/s
Channel(s)                               : 2 channels
Channel layout                           : L R
Sampling rate                            : 48.0 kHz
Frame rate                               : 46.875 FPS (1024 SPF)
Compression mode                         : Lossy
Stream size                              : 57.3 MiB (2%)
Language                                 : Korean
Default                                  : Yes
Forced                                   : No

Text #1
ID                                       : 3
Format                                   : UTF-8
Codec ID                                 : S_TEXT/UTF8
Codec ID/Info                            : UTF-8 Plain Text
Duration                                 : 40 min 24 s
Bit rate                                 : 0 b/s
Frame rate                               : 0.002 FPS
Count of elements                        : 5
Stream size                              : 130 Bytes (0%)
Title                                    : Forced
Language                                 : Korean
Default                                  : Yes
Forced                                   : Yes

Text #2
ID                                       : 4
Format                                   : UTF-8
Codec ID                                 : S_TEXT/UTF8
Codec ID/Info                            : UTF-8 Plain Text
Duration                                 : 1 h 2 min
Bit rate                                 : 27 b/s
Frame rate                               : 0.135 FPS
Count of elements                        : 509
Stream size                              : 12.8 KiB (0%)
Language                                 : Korean
Default                                  : No
Forced                                   : No

Text #3
ID                                       : 5
Format                                   : UTF-8
Codec ID                                 : S_TEXT/UTF8
Codec ID/Info                            : UTF-8 Plain Text
Duration                                 : 1 h 3 min
Bit rate                                 : 42 b/s
Frame rate                               : 0.191 FPS
Count of elements                        : 731
Stream size                              : 19.7 KiB (0%)
Title                                    : SDH
Language                                 : Korean
Default                                  : No
Forced                                   : No

Text #4
ID                                       : 6
Format                                   : UTF-8
Codec ID                                 : S_TEXT/UTF8
Codec ID/Info                            : UTF-8 Plain Text
Duration                                 : 1 h 3 min
Bit rate                                 : 25 b/s
Frame rate                               : 0.129 FPS
Count of elements                        : 487
Stream size                              : 11.7 KiB (0%)
Language                                 : English
Default                                  : No
Forced                                   : No

Text #5
ID                                       : 7
Format                                   : UTF-8
Codec ID                                 : S_TEXT/UTF8
Codec ID/Info                            : UTF-8 Plain Text
Duration                                 : 1 h 3 min
Bit rate                                 : 36 b/s
Frame rate                               : 0.180 FPS
Count of elements                        : 687
Stream size                              : 16.8 KiB (0%)
Title                                    : SDH
Language                                 : English
Default                                  : No
Forced                                   : No

Text #6
ID                                       : 8
Format                                   : UTF-8
Codec ID                                 : S_TEXT/UTF8
Codec ID/Info                            : UTF-8 Plain Text
Duration                                 : 1 h 3 min
Bit rate                                 : 25 b/s
Frame rate                               : 0.122 FPS
Count of elements                        : 465
Stream size                              : 11.8 KiB (0%)
Language                                 : Japanese
Default                                  : No
Forced                                   : No

Text #7
ID                                       : 9
Format                                   : UTF-8
Codec ID                                 : S_TEXT/UTF8
Codec ID/Info                            : UTF-8 Plain Text
Duration                                 : 1 h 3 min
Bit rate                                 : 23 b/s
Frame rate                               : 0.127 FPS
Count of elements                        : 484
Stream size                              : 11.0 KiB (0%)
Title                                    : Traditional
Language                                 : Chinese (Traditional)
Default                                  : No
Forced                                   : No

Menu
00:00:00.000                             : en:Chapter 01
00:00:04.004                             : en:Intro
00:00:42.000                             : en:Chapter 03
00:08:13.243                             : en:Chapter 04
00:19:50.858                             : en:Chapter 05
00:27:17.513                             : en:Chapter 06
00:36:50.252                             : en:Chapter 07
00:49:33.765                             : en:Chapter 08
00:57:42.296                             : en:Chapter 09
01:03:15.963                             : en:Credits



Download
File Container: MKV
Video/Audio Codec: H264 (HIGH) AAC (LC)
Video Resolution: 1920x1080
Please Login to post a comment.
If you don't have any account, please Register.
  • Subscribe my Feeds
  • Facebook
Encoding Queue:  x264  x265

Latest Episodes

Popular Movies and TV Shows

  • Hannah Einbinder: Everything Must Go
  • MILF of Norway
  • Welcome to Wrexham
  • I Saw the TV Glow
  • The Big Cigar
  • Ultraman: Rising
  • The Bold and the Beautiful
  • Sistas
  • The Chi
  • Brats
  • Shrek Forever After
  • With Love, Your Sweetly Salted
  • WWE NXT
  • The Boys
  • Walker
  • Mower Minions
  • Assimilate
  • Notas sobre un verano
  • Evil
  • Bridgerton
  • Criminal Minds
  • Lamp Life
  • In the Line of Fire
  • The Artifice Girl
  • The Daily Show

Recent Comments

Archives