Sign Up   |   Sign In  
Rebel Moon - Part Two: The ScargiverSugarYoung SheldonA Gentleman in MoscowLate Night with the DevilAsphalt CityBlood for DustElsbethLaw & Order: Special Victims UnitManhuntGhostbusters: Frozen EmpireThe Three Musketeers - Part II: MiladyThe ReaderStar Trek: DiscoveryAmerican Horror StoryFamily GuyYou Were Never Really HereGodzilla x Kong: The New EmpireLa margeThe Good DoctorFBIStar Wars: The Bad BatchImmaculateDune: Part TwoAn American Bombing: The Road to April 19th

Announcements

03/29

2024

No

Comments

Wonderful World S01E09 720p DSNP WEB-DL AAC2 0 H 264-FLUX
[RR/NF/CU]
Size: 1.3GB mkv H264 (HIGH) / AAC (LC)  HD  1280x720

Wonderful World
  • Wonderful World (2024-)
  • Genre: Drama | Thriller
  • Original Language: Korean
  • Storyline: Psychology professor and writer Eun Soo Hyun's world shatters when her son suffers an unpunished injustice. Seeking vengeance, she unexpectedly discovers solace helping others embroiled in comparable cryptic cases.
File Information
[img]http://lookpic.com/cdn/i2/t/0329202420465869-1.jpg[/img]
[img]http://lookpic.com/cdn/i2/t/0329202420465869-2.jpg[/img]
[img]http://lookpic.com/cdn/i2/t/0329202420465869-3.jpg[/img]

General
Unique ID                                : 288694600929523409355696820766260150689 (0xD9308EC38C030BE8ADEAF9AD255941A1)
Complete name                            : Wonderful.World.S01E09.720p.DSNP.WEB-DL.AAC2.0.H.264-FLUX.mkv
Format                                   : Matroska
Format version                           : Version 4
File size                                : 1.29 GiB
Duration                                 : 1 h 3 min
Overall bit rate mode                    : Variable
Overall bit rate                         : 2 888 kb/s
Frame rate                               : 23.976 FPS
Writing application                      : mkvmerge v77.0 ('Elemental') 64-bit
Writing library                          : libebml v1.4.4 + libmatroska v1.7.1

Video
ID                                       : 1
Format                                   : AVC
Format/Info                              : Advanced Video Codec
Format profile                           : [email protected]
Format settings                          : CABAC / 4 Ref Frames
Format settings, CABAC                   : Yes
Format settings, Reference frames        : 4 frames
Codec ID                                 : V_MPEG4/ISO/AVC
Duration                                 : 1 h 3 min
Bit rate mode                            : Variable
Bit rate                                 : 2 760 kb/s
Maximum bit rate                         : 6 375 kb/s
Width                                    : 1 280 pixels
Height                                   : 720 pixels
Display aspect ratio                     : 16:9
Frame rate mode                          : Constant
Frame rate                               : 23.976 (24000/1001) FPS
Color space                              : YUV
Chroma subsampling                       : 4:2:0
Bit depth                                : 8 bits
Scan type                                : Progressive
Bits/(Pixel*Frame)                       : 0.125
Time code of first frame                 : 00:00:00:0000000000
Stream size                              : 1.23 GiB (96%)
Default                                  : Yes
Forced                                   : No
Color range                              : Limited
Color primaries                          : BT.709
Transfer characteristics                 : BT.709
Matrix coefficients                      : BT.709

Audio
ID                                       : 2
Format                                   : AAC LC
Format/Info                              : Advanced Audio Codec Low Complexity
Codec ID                                 : A_AAC-2
Duration                                 : 1 h 3 min
Bit rate                                 : 125 kb/s
Channel(s)                               : 2 channels
Channel layout                           : L R
Sampling rate                            : 48.0 kHz
Frame rate                               : 46.875 FPS (1024 SPF)
Compression mode                         : Lossy
Stream size                              : 57.3 MiB (4%)
Language                                 : Korean
Default                                  : Yes
Forced                                   : No

Text #1
ID                                       : 3
Format                                   : UTF-8
Codec ID                                 : S_TEXT/UTF8
Codec ID/Info                            : UTF-8 Plain Text
Duration                                 : 40 min 24 s
Bit rate                                 : 0 b/s
Frame rate                               : 0.002 FPS
Count of elements                        : 5
Stream size                              : 130 Bytes (0%)
Title                                    : Forced
Language                                 : Korean
Default                                  : Yes
Forced                                   : Yes

Text #2
ID                                       : 4
Format                                   : UTF-8
Codec ID                                 : S_TEXT/UTF8
Codec ID/Info                            : UTF-8 Plain Text
Duration                                 : 1 h 2 min
Bit rate                                 : 27 b/s
Frame rate                               : 0.135 FPS
Count of elements                        : 509
Stream size                              : 12.8 KiB (0%)
Language                                 : Korean
Default                                  : No
Forced                                   : No

Text #3
ID                                       : 5
Format                                   : UTF-8
Codec ID                                 : S_TEXT/UTF8
Codec ID/Info                            : UTF-8 Plain Text
Duration                                 : 1 h 3 min
Bit rate                                 : 42 b/s
Frame rate                               : 0.191 FPS
Count of elements                        : 731
Stream size                              : 19.7 KiB (0%)
Title                                    : SDH
Language                                 : Korean
Default                                  : No
Forced                                   : No

Text #4
ID                                       : 6
Format                                   : UTF-8
Codec ID                                 : S_TEXT/UTF8
Codec ID/Info                            : UTF-8 Plain Text
Duration                                 : 1 h 3 min
Bit rate                                 : 25 b/s
Frame rate                               : 0.129 FPS
Count of elements                        : 487
Stream size                              : 11.7 KiB (0%)
Language                                 : English
Default                                  : No
Forced                                   : No

Text #5
ID                                       : 7
Format                                   : UTF-8
Codec ID                                 : S_TEXT/UTF8
Codec ID/Info                            : UTF-8 Plain Text
Duration                                 : 1 h 3 min
Bit rate                                 : 36 b/s
Frame rate                               : 0.180 FPS
Count of elements                        : 687
Stream size                              : 16.8 KiB (0%)
Title                                    : SDH
Language                                 : English
Default                                  : No
Forced                                   : No

Text #6
ID                                       : 8
Format                                   : UTF-8
Codec ID                                 : S_TEXT/UTF8
Codec ID/Info                            : UTF-8 Plain Text
Duration                                 : 1 h 3 min
Bit rate                                 : 25 b/s
Frame rate                               : 0.122 FPS
Count of elements                        : 465
Stream size                              : 11.8 KiB (0%)
Language                                 : Japanese
Default                                  : No
Forced                                   : No

Text #7
ID                                       : 9
Format                                   : UTF-8
Codec ID                                 : S_TEXT/UTF8
Codec ID/Info                            : UTF-8 Plain Text
Duration                                 : 1 h 3 min
Bit rate                                 : 23 b/s
Frame rate                               : 0.127 FPS
Count of elements                        : 484
Stream size                              : 11.0 KiB (0%)
Title                                    : Traditional
Language                                 : Chinese (Traditional)
Default                                  : No
Forced                                   : No

Menu
00:00:00.000                             : en:Chapter 01
00:00:04.004                             : en:Intro
00:00:42.000                             : en:Chapter 03
00:08:13.243                             : en:Chapter 04
00:19:50.858                             : en:Chapter 05
00:27:17.513                             : en:Chapter 06
00:36:50.252                             : en:Chapter 07
00:49:33.765                             : en:Chapter 08
00:57:42.296                             : en:Chapter 09
01:03:15.963                             : en:Credits



Download
File Container: MKV
Video/Audio Codec: H264 (HIGH) AAC (LC)
Video Resolution: 1280x720
Please Login to post a comment.
If you don't have any account, please Register.
  • Subscribe my Feeds
  • Facebook
Encoding Queue:  x264  x265

Latest Episodes

Popular Movies and TV Shows

  • Rebel Moon - Part Two: The Scargiver
  • Sugar
  • Young Sheldon
  • A Gentleman in Moscow
  • Late Night with the Devil
  • Asphalt City
  • Blood for Dust
  • Elsbeth
  • Law & Order: Special Victims Unit
  • Manhunt
  • Ghostbusters: Frozen Empire
  • The Three Musketeers - Part II: Milady
  • The Reader
  • Star Trek: Discovery
  • American Horror Story
  • Family Guy
  • You Were Never Really Here
  • Godzilla x Kong: The New Empire
  • La marge
  • The Good Doctor
  • FBI
  • Star Wars: The Bad Batch
  • Immaculate
  • Dune: Part Two
  • An American Bombing: The Road to April 19th

Recent Comments

  • 23d1:

    ClicknUpload link is missing

  • yopo:

    NitroFlare's link is missing !!!

  • yopo:

    NitroFlare's link is missing !!!

  • yopo:

    NitroFlare's link is missing !!!
    Clicknupload's link is missing !!!

  • yopo:

    NitroFlare's link is missing !!!

  • dragonnightfire: I have tried contacting Rapid Rar to find out what is going on with the server maintainance. I am no...
  • dragonnightfire:

    RR links dead on 5 eps

  • Draveren: hi. can we solve this "server under maintenance" stuff, already? if back in the day i'd ke...
  • Majnon: The links are dead. Please re-upload
  • timt:

    Anyone have the movie "Shoot" (1976) to post?

  • Nightshade: Hey, it appears at least the RMTeam separate episodes and ION's packs for the first two seasons of t...
  • Bigfishguy:

    There's no free option to download this video. Can someone please upload it to clicknupload?

  • timt:

    Junk

  • timt:

    CAM Audio

  • timt:

    Hard Coded SUMS! Russian, I Think.

  • ubirattan:

    Mandem um Fikper, por favor.

  • kellym2: No answer yet for my query - why all the episodes "server under maintenance" on some episo...
  • Majnon:

    Rapidrar links are dead :(

  • Rake:

    Loads of "Server is under maintenance" with RR theese days...

Archives