Sign Up   |   Sign In  
Rebel Moon - Part Two: The ScargiverLate Night with the DevilBlood for DustElsbethSo Help Me ToddLaw & Order: Organized CrimeSugarYoung SheldonA Gentleman in MoscowAsphalt CityProblemistaRiver WildManhuntLaw & Order: Special Victims UnitGhostsGhostbusters: Frozen EmpireThe Three Musketeers - Part II: MiladyThe ReaderStar Trek: DiscoveryAmerican Horror StoryFamily GuyYou Were Never Really HereGodzilla x Kong: The New EmpireDune: Part TwoThe Good Doctor

Announcements

04/03

2024

No

Comments

Star Wars The Bad Batch S03E10 Identity Crisis 1080p DSNP WEB-DL DDP5 1 H 264-NTb
[RR/NF/CU]
Size: 1.1GB mkv H264 (HIGH) / EAC3  HD  1920x1080

Star Wars: The Bad Batch
File Information
[img]http://lookpic.com/cdn/i2/t/0403202409342062-1.jpg[/img]
[img]http://lookpic.com/cdn/i2/t/0403202409342062-2.jpg[/img]
[img]http://lookpic.com/cdn/i2/t/0403202409342062-3.jpg[/img]

General
Unique ID                                : 128588636381978621517464422281459986634 (0x60BD45418F0B9DD3A942EACE2946F0CA)
Complete name                            : Star Wars The Bad Batch S03E10 Identity Crisis 1080p DSNP WEB-DL DDP5 1 H 264-NTb.mkv
Format                                   : Matroska
Format version                           : Version 4
File size                                : 1.13 GiB
Duration                                 : 23 min 18 s
Overall bit rate mode                    : Variable
Overall bit rate                         : 6 969 kb/s
Frame rate                               : 24.000 FPS
Writing application                      : mkvmerge v81.0 ('Milliontown') 64-bit
Writing library                          : libebml v1.4.4 + libmatroska v1.7.1

Video
ID                                       : 1
Format                                   : AVC
Format/Info                              : Advanced Video Codec
Format profile                           : High@L4
Format settings                          : CABAC / 4 Ref Frames
Format settings, CABAC                   : Yes
Format settings, Reference frames        : 4 frames
Codec ID                                 : V_MPEG4/ISO/AVC
Duration                                 : 23 min 18 s
Bit rate mode                            : Variable
Bit rate                                 : 6 709 kb/s
Maximum bit rate                         : 12.7 Mb/s
Width                                    : 1 920 pixels
Height                                   : 1 080 pixels
Display aspect ratio                     : 16:9
Frame rate mode                          : Constant
Frame rate                               : 24.000 FPS
Color space                              : YUV
Chroma subsampling                       : 4:2:0
Bit depth                                : 8 bits
Scan type                                : Progressive
Bits/(Pixel*Frame)                       : 0.135
Time code of first frame                 : 00:00:00:0000000000
Stream size                              : 1.09 GiB (96%)
Default                                  : Yes
Forced                                   : No
Color range                              : Limited
Color primaries                          : BT.709
Transfer characteristics                 : BT.709
Matrix coefficients                      : BT.709

Audio
ID                                       : 2
Format                                   : E-AC-3
Format/Info                              : Enhanced AC-3
Commercial name                          : Dolby Digital Plus
Codec ID                                 : A_EAC3
Duration                                 : 23 min 18 s
Bit rate mode                            : Constant
Bit rate                                 : 256 kb/s
Channel(s)                               : 6 channels
Channel layout                           : L R C LFE Ls Rs
Sampling rate                            : 48.0 kHz
Frame rate                               : 31.250 FPS (1536 SPF)
Compression mode                         : Lossy
Stream size                              : 42.7 MiB (4%)
Language                                 : English
Service kind                             : Complete Main
Default                                  : Yes
Forced                                   : No

Text #1
ID                                       : 3
Format                                   : UTF-8
Codec ID                                 : S_TEXT/UTF8
Codec ID/Info                            : UTF-8 Plain Text
Duration                                 : 19 min 26 s
Bit rate                                 : 41 b/s
Frame rate                               : 0.159 FPS
Count of elements                        : 186
Stream size                              : 5.85 KiB (0%)
Language                                 : English
Default                                  : No
Forced                                   : No

Text #2
ID                                       : 4
Format                                   : UTF-8
Codec ID                                 : S_TEXT/UTF8
Codec ID/Info                            : UTF-8 Plain Text
Duration                                 : 20 min 53 s
Bit rate                                 : 46 b/s
Frame rate                               : 0.199 FPS
Count of elements                        : 250
Stream size                              : 7.13 KiB (0%)
Title                                    : SDH
Language                                 : English
Default                                  : No
Forced                                   : No

Text #3
ID                                       : 5
Format                                   : UTF-8
Codec ID                                 : S_TEXT/UTF8
Codec ID/Info                            : UTF-8 Plain Text
Duration                                 : 22 min 44 s
Bit rate                                 : 32 b/s
Frame rate                               : 0.130 FPS
Count of elements                        : 177
Stream size                              : 5.38 KiB (0%)
Language                                 : Czech
Default                                  : No
Forced                                   : No

Text #4
ID                                       : 6
Format                                   : UTF-8
Codec ID                                 : S_TEXT/UTF8
Codec ID/Info                            : UTF-8 Plain Text
Duration                                 : 22 min 44 s
Bit rate                                 : 34 b/s
Frame rate                               : 0.137 FPS
Count of elements                        : 187
Stream size                              : 5.78 KiB (0%)
Language                                 : Danish
Default                                  : No
Forced                                   : No

Text #5
ID                                       : 7
Format                                   : UTF-8
Codec ID                                 : S_TEXT/UTF8
Codec ID/Info                            : UTF-8 Plain Text
Duration                                 : 22 min 41 s
Bit rate                                 : 33 b/s
Frame rate                               : 0.133 FPS
Count of elements                        : 181
Stream size                              : 5.54 KiB (0%)
Language                                 : German
Default                                  : No
Forced                                   : No

Text #6
ID                                       : 8
Format                                   : UTF-8
Codec ID                                 : S_TEXT/UTF8
Codec ID/Info                            : UTF-8 Plain Text
Duration                                 : 22 min 16 s
Bit rate                                 : 61 b/s
Frame rate                               : 0.137 FPS
Count of elements                        : 183
Stream size                              : 10.0 KiB (0%)
Language                                 : Greek
Default                                  : No
Forced                                   : No

Text #7
ID                                       : 9
Format                                   : UTF-8
Codec ID                                 : S_TEXT/UTF8
Codec ID/Info                            : UTF-8 Plain Text
Duration                                 : 22 min 41 s
Bit rate                                 : 34 b/s
Frame rate                               : 0.137 FPS
Count of elements                        : 186
Stream size                              : 5.66 KiB (0%)
Title                                    : Spanish (Latin America)
Language                                 : Spanish (Latin America)
Default                                  : No
Forced                                   : No

Text #8
ID                                       : 10
Format                                   : UTF-8
Codec ID                                 : S_TEXT/UTF8
Codec ID/Info                            : UTF-8 Plain Text
Duration                                 : 22 min 44 s
Bit rate                                 : 34 b/s
Frame rate                               : 0.137 FPS
Count of elements                        : 187
Stream size                              : 5.71 KiB (0%)
Title                                    : Spanish (Spain)
Language                                 : Spanish (ES)
Default                                  : No
Forced                                   : No

Text #9
ID                                       : 11
Format                                   : UTF-8
Codec ID                                 : S_TEXT/UTF8
Codec ID/Info                            : UTF-8 Plain Text
Duration                                 : 22 min 41 s
Bit rate                                 : 32 b/s
Frame rate                               : 0.135 FPS
Count of elements                        : 184
Stream size                              : 5.34 KiB (0%)
Language                                 : Finnish
Default                                  : No
Forced                                   : No

Text #10
ID                                       : 12
Format                                   : UTF-8
Codec ID                                 : S_TEXT/UTF8
Codec ID/Info                            : UTF-8 Plain Text
Duration                                 : 22 min 41 s
Bit rate                                 : 35 b/s
Frame rate                               : 0.137 FPS
Count of elements                        : 186
Stream size                              : 5.86 KiB (0%)
Language                                 : French (FR)
Default                                  : No
Forced                                   : No

Text #11
ID                                       : 13
Format                                   : UTF-8
Codec ID                                 : S_TEXT/UTF8
Codec ID/Info                            : UTF-8 Plain Text
Duration                                 : 22 min 44 s
Bit rate                                 : 33 b/s
Frame rate                               : 0.136 FPS
Count of elements                        : 186
Stream size                              : 5.64 KiB (0%)
Language                                 : Hungarian
Default                                  : No
Forced                                   : No

Text #12
ID                                       : 14
Format                                   : UTF-8
Codec ID                                 : S_TEXT/UTF8
Codec ID/Info                            : UTF-8 Plain Text
Duration                                 : 22 min 41 s
Bit rate                                 : 35 b/s
Frame rate                               : 0.134 FPS
Count of elements                        : 182
Stream size                              : 5.83 KiB (0%)
Language                                 : Italian
Default                                  : No
Forced                                   : No

Text #13
ID                                       : 15
Format                                   : UTF-8
Codec ID                                 : S_TEXT/UTF8
Codec ID/Info                            : UTF-8 Plain Text
Duration                                 : 22 min 52 s
Bit rate                                 : 33 b/s
Frame rate                               : 0.142 FPS
Count of elements                        : 195
Stream size                              : 5.57 KiB (0%)
Language                                 : Japanese
Default                                  : No
Forced                                   : No

Text #14
ID                                       : 16
Format                                   : UTF-8
Codec ID                                 : S_TEXT/UTF8
Codec ID/Info                            : UTF-8 Plain Text
Duration                                 : 22 min 55 s
Bit rate                                 : 37 b/s
Frame rate                               : 0.137 FPS
Count of elements                        : 188
Stream size                              : 6.22 KiB (0%)
Language                                 : Korean
Default                                  : No
Forced                                   : No

Text #15
ID                                       : 17
Format                                   : UTF-8
Codec ID                                 : S_TEXT/UTF8
Codec ID/Info                            : UTF-8 Plain Text
Duration                                 : 22 min 41 s
Bit rate                                 : 32 b/s
Frame rate                               : 0.114 FPS
Count of elements                        : 155
Stream size                              : 5.41 KiB (0%)
Language                                 : Dutch
Default                                  : No
Forced                                   : No

Text #16
ID                                       : 18
Format                                   : UTF-8
Codec ID                                 : S_TEXT/UTF8
Codec ID/Info                            : UTF-8 Plain Text
Duration                                 : 22 min 44 s
Bit rate                                 : 34 b/s
Frame rate                               : 0.136 FPS
Count of elements                        : 185
Stream size                              : 5.68 KiB (0%)
Language                                 : Norwegian
Default                                  : No
Forced                                   : No

Text #17
ID                                       : 19
Format                                   : UTF-8
Codec ID                                 : S_TEXT/UTF8
Codec ID/Info                            : UTF-8 Plain Text
Duration                                 : 22 min 55 s
Bit rate                                 : 32 b/s
Frame rate                               : 0.136 FPS
Count of elements                        : 187
Stream size                              : 5.47 KiB (0%)
Language                                 : Polish
Default                                  : No
Forced                                   : No

Text #18
ID                                       : 20
Format                                   : UTF-8
Codec ID                                 : S_TEXT/UTF8
Codec ID/Info                            : UTF-8 Plain Text
Duration                                 : 22 min 41 s
Bit rate                                 : 35 b/s
Frame rate                               : 0.134 FPS
Count of elements                        : 182
Stream size                              : 5.98 KiB (0%)
Title                                    : Portuguese (Brazil)
Language                                 : Portuguese (BR)
Default                                  : No
Forced                                   : No

Text #19
ID                                       : 21
Format                                   : UTF-8
Codec ID                                 : S_TEXT/UTF8
Codec ID/Info                            : UTF-8 Plain Text
Duration                                 : 22 min 44 s
Bit rate                                 : 35 b/s
Frame rate                               : 0.137 FPS
Count of elements                        : 187
Stream size                              : 5.99 KiB (0%)
Title                                    : Portuguese (Portugal)
Language                                 : Portuguese (PT)
Default                                  : No
Forced                                   : No

Text #20
ID                                       : 22
Format                                   : UTF-8
Codec ID                                 : S_TEXT/UTF8
Codec ID/Info                            : UTF-8 Plain Text
Duration                                 : 22 min 55 s
Bit rate                                 : 34 b/s
Frame rate                               : 0.126 FPS
Count of elements                        : 174
Stream size                              : 5.76 KiB (0%)
Language                                 : Romanian
Default                                  : No
Forced                                   : No

Text #21
ID                                       : 23
Format                                   : UTF-8
Codec ID                                 : S_TEXT/UTF8
Codec ID/Info                            : UTF-8 Plain Text
Duration                                 : 22 min 44 s
Bit rate                                 : 32 b/s
Frame rate                               : 0.137 FPS
Count of elements                        : 187
Stream size                              : 5.47 KiB (0%)
Language                                 : Slovak
Default                                  : No
Forced                                   : No

Text #22
ID                                       : 24
Format                                   : UTF-8
Codec ID                                 : S_TEXT/UTF8
Codec ID/Info                            : UTF-8 Plain Text
Duration                                 : 22 min 44 s
Bit rate                                 : 35 b/s
Frame rate                               : 0.137 FPS
Count of elements                        : 187
Stream size                              : 5.92 KiB (0%)
Language                                 : Swedish
Default                                  : No
Forced                                   : No

Text #23
ID                                       : 25
Format                                   : UTF-8
Codec ID                                 : S_TEXT/UTF8
Codec ID/Info                            : UTF-8 Plain Text
Duration                                 : 22 min 55 s
Bit rate                                 : 27 b/s
Frame rate                               : 0.137 FPS
Count of elements                        : 188
Stream size                              : 4.68 KiB (0%)
Title                                    : Chinese (Hong Kong SAR China)
Language                                 : Chinese (HK)
Default                                  : No
Forced                                   : No

Text #24
ID                                       : 26
Format                                   : UTF-8
Codec ID                                 : S_TEXT/UTF8
Codec ID/Info                            : UTF-8 Plain Text
Duration                                 : 22 min 55 s
Bit rate                                 : 28 b/s
Frame rate                               : 0.137 FPS
Count of elements                        : 188
Stream size                              : 4.79 KiB (0%)
Title                                    : Chinese (Traditional)
Language                                 : Chinese (Traditional)
Default                                  : No
Forced                                   : No



Download
File Container: MKV
Video/Audio Codec: H264 (HIGH) EAC3
Video Resolution: 1920x1080
Please Login to post a comment.
If you don't have any account, please Register.
  • Subscribe my Feeds
  • Facebook
Encoding Queue:  x264  x265

Latest Episodes

Popular Movies and TV Shows

  • Rebel Moon - Part Two: The Scargiver
  • Late Night with the Devil
  • Blood for Dust
  • Elsbeth
  • So Help Me Todd
  • Law & Order: Organized Crime
  • Sugar
  • Young Sheldon
  • A Gentleman in Moscow
  • Asphalt City
  • Problemista
  • River Wild
  • Manhunt
  • Law & Order: Special Victims Unit
  • Ghosts
  • Ghostbusters: Frozen Empire
  • The Three Musketeers - Part II: Milady
  • The Reader
  • Star Trek: Discovery
  • American Horror Story
  • Family Guy
  • You Were Never Really Here
  • Godzilla x Kong: The New Empire
  • Dune: Part Two
  • The Good Doctor

Recent Comments

  • 23d1:

    ClicknUpload link is missing

  • yopo:

    NitroFlare's link is missing !!!

  • yopo:

    NitroFlare's link is missing !!!

  • yopo:

    NitroFlare's link is missing !!!
    Clicknupload's link is missing !!!

  • yopo:

    NitroFlare's link is missing !!!

  • dragonnightfire: I have tried contacting Rapid Rar to find out what is going on with the server maintainance. I am no...
  • dragonnightfire:

    RR links dead on 5 eps

  • Draveren: hi. can we solve this "server under maintenance" stuff, already? if back in the day i'd ke...
  • Majnon: The links are dead. Please re-upload
  • timt:

    Anyone have the movie "Shoot" (1976) to post?

  • Nightshade: Hey, it appears at least the RMTeam separate episodes and ION's packs for the first two seasons of t...
  • Bigfishguy:

    There's no free option to download this video. Can someone please upload it to clicknupload?

  • timt:

    Junk

  • timt:

    CAM Audio

  • timt:

    Hard Coded SUMS! Russian, I Think.

  • ubirattan:

    Mandem um Fikper, por favor.

  • kellym2: No answer yet for my query - why all the episodes "server under maintenance" on some episo...
  • Majnon:

    Rapidrar links are dead :(

  • Rake:

    Loads of "Server is under maintenance" with RR theese days...

Archives